Маестро брехні / Wizard Of Lies (2017) Remux 1080p Ukr/Eng | Sub Eng

Нові коментарі

Нова тема   Відповісти
Автор Повідомлення
staf777 
Відео Гуртом - підтримка та поширення
Відео Гуртом - підтримка та поширення


З нами з: 16.11.16
Востаннє: 07.12.19
Повідомлень: 3038

2018-02-03 19:41  
Маестро брехні / Wizard Of Lies (2017) Remux 1080p Ukr/Eng | Sub Eng

Маестро брехні / Wizard Of Lies (2017) Remux 1080p Ukr/Eng | Sub Eng


Жанр: драма, біографічний
Країна: США



Кінокомпанія: HBO
Режисер: Баррі Левінсон
Актори: Роберт Де Ніро, Мішель Пфайфер, Алессандро Нівола, Нейтен Дарроу та інші

Сюжет:
Телефільм американського режисера Баррі Левінсона, знятий за однойменною книжкою журналістки Діани Енрікес про одну з найбільших у світі фінансових пірамід, яку створив Бернард Мейдофф і яка була викрита владі його синами. У головній ролі Роберт Де Ніро. Діана Енрікес зіграла у фільмі саму себе, відтворюючи у фільмі сцену інтерв'ю з Мейдоффом у перший день тюремного ув'язнення. Слоган фільму: «Зрадити можуть лише ті, кому по-справжньому довіряєш»


Тривалість: 02:12:43
Якість: Remux 1080p [Взято з європейського Блу-рея]
Відео:
кодек:
розмір кадру: 1920x1080
бітрейт: 31,4 Mб/с

Аудіо # 1:
мова: українська
переклад: багатоголосий закадровий
кодек: -HD MA 5.1
бітрейт: 3426 кб/с

Аудіо # 2:
мова: українська
переклад: багатоголосий закадровий
кодек: 5.1
бітрейт: 640 кб/с

Озвучено студією "НеЗупиняйПродакшн"


Аудіо # 3:
мова: англійська
переклад: оригінал
кодек: -HD MA 5.1
бітрейт: 3353 кб/с

Субтитри # 1-2:
мова: англійська
тип: програмні (м'які)
формат: *.srt
Info
General
Unique ID : 214946397582642172324257182229483479341 (0xA1B52B9C562C9443A7297B2FE6F7E12D)
Complete name : K:\Фільми HD\Драма\Wizard Of Lies (2017) Remux 1080p [Ukr][Eng][Sub Eng][Hurtom].
Format :
Format version : Version 4 / Version 2
File size : 36.0 GiB
Duration : 2 h 12 min
Overall bit rate mode : Variable
Overall bit rate : 38.9 Mb/s
Movie name : Wizard Of Lies (2017) Remux 1080p [Ukr][Eng][Sub Eng][Hurtom]
Encoded date : UTC 2018-02-03 20:18:19
Writing application : v9.8.0 ('Kuglblids') 64bit
Writing library : libebml v1.3.4 + v1.4.5

Video
ID : 1
Format : AVC
Format/Info : Advanced Video Codec
Format profile : [email protected]
Format settings, CABAC : Yes
Format settings, ReFrames : 4 frames
Codec ID : V_MPEG4/ISO/AVC
Duration : 2 h 12 min
Bit rate mode : Variable
Bit rate : 31.4 Mb/s
Maximum bit rate : 35.0 Mb/s
Width : 1 920 pixels
Height : 1 080 pixels
Display aspect ratio : 16:9
Frame rate mode : Constant
Frame rate : 23.976 (24000/1001) FPS
Color space : YUV
Chroma subsampling : 4:2:0
Bit depth : 8 bits
Scan type : Progressive
Bits/(Pixel*Frame) : 0.632
Stream size : 29.1 GiB (81%)
Title : Wizard Of Lies (2017)
Language : English
Default : Yes
Forced : No

Audio #1
ID : 2
Format :
Format/Info : Digital Theater Systems
Format profile : MA / Core
Mode : 16
Format settings, Endianness : Big
Codec ID : A_DTS
Duration : 2 h 12 min
Bit rate mode : Variable / Constant
Bit rate : 3 426 kb/s / 1 509 kb/s
Channel(s) : 6 channels
Channel positions : Front: L C R, Side: L R, LFE
Sampling rate : 48.0 kHz
Frame rate : 93.750 FPS (512 spf)
Bit depth : 24 bits
Compression mode : Lossless / Lossy
Stream size : 3.18 GiB (9%)
Title : HD MA
Language : Ukrainian
Default : Yes
Forced : Yes

Audio #2
ID : 3
Format : AC-3
Format/Info : Audio Coding 3
Mode extension : CM (complete main)
Format settings, Endianness : Big
Codec ID : A_AC3
Duration : 2 h 12 min
Bit rate mode : Constant
Bit rate : 640 kb/s
Channel(s) : 6 channels
Channel positions : Front: L C R, Side: L R, LFE
Sampling rate : 48.0 kHz
Frame rate : 31.250 FPS (1536 spf)
Bit depth : 16 bits
Compression mode : Lossy
Stream size : 607 MiB (2%)
Title :
Language : Ukrainian
Default : No
Forced : No

Audio #3
ID : 4
Format :
Format/Info : Digital Theater Systems
Format profile : MA / Core
Mode : 16
Format settings, Endianness : Big
Codec ID : A_DTS
Duration : 2 h 12 min
Bit rate mode : Variable / Constant
Bit rate : 3 353 kb/s / 1 509 kb/s
Channel(s) : 6 channels
Channel positions : Front: L C R, Side: L R, LFE
Sampling rate : 48.0 kHz
Frame rate : 93.750 FPS (512 spf)
Bit depth : 24 bits
Compression mode : Lossless / Lossy
Stream size : 3.11 GiB (9%)
Language : English
Default : No
Forced : No

Text #1
ID : 5
Format : UTF-8
Codec ID : S_TEXT/UTF8
Codec ID/Info : UTF-8 Plain Text
Duration : 2 h 7 min
Bit rate : 91 b/s
Count of elements : 2219
Stream size : 85.8 KiB (0%)
Title : Full
Language : English
Default : No
Forced : No

Text #2
ID : 6
Format : UTF-8
Codec ID : S_TEXT/UTF8
Codec ID/Info : UTF-8 Plain Text
Duration : 2 h 8 min
Bit rate : 103 b/s
Count of elements : 2689
Stream size : 98.0 KiB (0%)
Title : SDH
Language : English
Default : No
Forced : No



Джерело: &
Подяка за українські доріжки студії "НеЗупиняйПродакшн"
Особиста оцінка: 0 - не дивився


Авторський реліз (завантажувати можна без реєстрації)
 Трекер:    Зареєстрований   

Завантажити / скачати фільм українською



відео для новачків



 Зареєстрований:   2018-02-03 23:33
 Розмір:   36.02 GB 
 Оцінка фільму:   7.4/10 (Голосів: 16)
   
Інші релізи
bot 
робот


З нами з: 30.09.07
Востаннє: 26.05.05
Повідомлень: 22591

2018-02-03 23:32  
Тему перенесено з Анонси релізів до форуму Фільми в HD


staf777

НеЗупиняйПродакшн 
VIP


З нами з: 28.07.15
Востаннє: 07.12.19
Повідомлень: 1021

2018-02-04 10:46  
_________________________________________________________________________________


NAZARIJ007 
Частий відвідувач


З нами з: 06.06.12
Востаннє: 07.12.19
Повідомлень: 38

2018-02-04 15:00  
фільм надзвичайно занудний, про мільярди могло б бути краще це десь 0.0001% від крутості фільму Вовк з Вол Стріт
Victor_Scythian 
VIP


З нами з: 06.01.17
Востаннє: 27.11.19
Повідомлень: 287

2018-02-13 06:44  
Нудно, прогнозовано не цікаво... 1/10...
Uberwinder 
VIP


З нами з: 18.11.16
Востаннє: 07.12.19
Повідомлень: 277

2018-03-29 21:52  
Підтримую попередні відгуки, фільм нудний, мов собача пісня!
Ваш часовий пояс: GMT + 2 Години

Нова тема   Відповісти