Юний Шелдон (Сезон 1, Серії 1-11) / Young Sheldon (Season 1, Episodes 1-11) (2017-2018) 1080p Ukr/Eng | Sub Eng

Нові коментарі

Нова тема   Відповісти
Автор Повідомлення
Anonymous 







2018-02-03 12:11  
Юний Шелдон (Сезон 1, Серії 1-11) / Young Sheldon (Season 1, Episodes 1-11) (2017-2018) 1080p Ukr/Eng | Sub Eng

Юний Шелдон (Сезон 1, Серії 1-11) / Young Sheldon (Season 1, Episodes 1-11) (2017-2018) 1080p Ukr/Eng | Sub Eng


Жанр: комедія
Країна: США



Кінокомпанія: Chuck Lorre Productions, Warner Bros. Televisio
Режисер: Чак Лорі, Стівен Моларо
Актори: Аєн Армітідж, Зої Перрі, Ленс Барбер, Джим Парсон(голос) та інші.

Сюжет:
Ті хто дивився Теорію Великого Вибуху знають про персонажа на ім'я Шелдон Купер. Отож, цей серіал про його дитинство.
Шелдону 9 років, а історія починається з того, що він іде навчатися до старшої школи.


Тривалість: 1 серія: 22 хвилини (цілком серій: 11 з 22)
Перелік серій
Young Sheldon. Season 1, Episode 1. Pilot
Young Sheldon. Season 1, Episode 2. Rockets, Communists, and the Dewey Decimal System
Young Sheldon. Season 1, Episode 3. Poker, Faith and Eggs
Young Sheldon. Season 1, Episode 4. A Therapist, a Comic Book, and a Breakfast Sausage
Young Sheldon. Season 1, Episode 5. A Solar Calculator, a Game Ball, and a Cheerleader's Bosom
Young Sheldon. Season 1, Episode 6. A Patch, a Modem, and a Zantac
Young Sheldon. Season 1, Episode 7. A Brisket, Voodoo, and Cannonball Run
Young Sheldon. Season 1, Episode 8. Cape Canaveral, Schrödinger's Cat, and Cyndi Lauper's Hair
Young Sheldon. Season 1, Episode 9. Spock, Kirk, and Testicular Hernia
Young Sheldon. Season 1, Episode 10. An Eagle Feather, a String Bean, and an Eskimo
Young Sheldon. Season 1, Episode 11. Demons, Sunday School, and Prime Numbers
Якість: 1080р
Відео:
кодек:
розмір кадру: 1920 х 1080
бітрейт: ~ 6000-10000 кб/с

Аудіо # 1:
мова: українська
переклад: багатоголосий закадровий
кодек: 2.0
бітрейт: 192 кб/с

Аудіо # 2:
мова: англійська
переклад: оригінал
кодек: 5.1
бітрейт: 640 кб/с

Джерело озвученя:


Субтитри:
мова: англійська
тип: програмні (м'які)
формат: *.srt
Info
General
Unique ID : 201197924530235441845874449490449938543 (0x975D4F8DF9E5FC55A8FF5C05D5FE386F)
Complete name : D:\Young Sheldon\Season 1\Young.Sheldon.S01E01..1080p.Ukr.Eng.
Format :
Format version : Version 2
File size : 1.08 GiB
Duration : 21 min 17 s
Overall bit rate mode : Variable
Overall bit rate : 7 236 kb/s
Movie name : Young Sheldon 1x01 (2017) - Release serial_M
Encoded date : UTC 2018-02-03 10:03:05
Writing application : v5.6.0 ('Kenya Kane') built on May 27 2012 16:44:04
Writing library : libebml v1.2.3 + v1.3.0

Video
ID : 1
Format : AVC
Format/Info : Advanced Video Codec
Format profile : [email protected]
Format settings, CABAC : Yes
Format settings, ReFrames : 4 frames
Codec ID : V_MPEG4/ISO/AVC
Duration : 21 min 17 s
Bit rate mode : Variable
Bit rate : 6 260 kb/s
Maximum bit rate : 15.0 Mb/s
Width : 1 920 pixels
Height : 1 080 pixels
Display aspect ratio : 16:9
Frame rate mode : Constant
Frame rate : 23.976 (24000/1001) FPS
Color space : YUV
Chroma subsampling : 4:2:0
Bit depth : 8 bits
Scan type : Progressive
Bits/(Pixel*Frame) : 0.126
Stream size : 954 MiB (87%)
Title : Young Sheldon 1x01 (2017)
Language : English
Default : Yes
Forced : No
Color range : Limited
Color primaries : BT.709
Transfer characteristics : BT.709
Matrix coefficients : BT.709
Statistics Tags Issue : v20.0.0 ('I Am The Sun') 64-bit 2018-02-03 05:52:09 / v5.6.0 ('Kenya Kane') built on May 27 2012 16:44:04 2018-02-03 10:03:05
FromStats_BitRate : 6401413
FromStats_Duration : 00:21:17.819000000
FromStats_FrameCount : 30637
FromStats_StreamSize : 1022480933

Audio #1
ID : 2
Format : AC-3
Format/Info : Audio Coding 3
Format settings, Endianness : Big
Codec ID : A_AC3
Duration : 21 min 17 s
Bit rate mode : Constant
Bit rate : 192 kb/s
Channel(s) : 2 channels
Channel positions : Front: L R
Sampling rate : 48.0 kHz
Frame rate : 31.250 FPS (1536 spf)
Bit depth : 16 bits
Compression mode : Lossy
Stream size : 29.2 MiB (3%)
Title : Paramount Comedy
Language : Ukrainian
Service kind : Complete Main
Default : Yes
Forced : No

Audio #2
ID : 3
Format : E-AC-3
Format/Info : Enhanced Audio Coding 3
Format settings, Endianness : Big
Codec ID : A_EAC3
Duration : 21 min 17 s
Bit rate mode : Constant
Bit rate : 640 kb/s
Channel(s) : 6 channels
Channel positions : Front: L C R, Side: L R, LFE
Sampling rate : 48.0 kHz
Frame rate : 187.500 FPS (256 spf)
Compression mode : Lossy
Stream size : 97.5 MiB (9%)
Title : English
Language : English
Service kind : Complete Main
Default : No
Forced : No
Statistics Tags Issue : v20.0.0 ('I Am The Sun') 64-bit 2018-02-03 05:52:09 / v5.6.0 ('Kenya Kane') built on May 27 2012 16:44:04 2018-02-03 10:03:05
FromStats_BitRate : 640000
FromStats_Duration : 00:21:17.792000000
FromStats_FrameCount : 39931
FromStats_StreamSize : 102223360

Text
ID : 4
Format : UTF-8
Codec ID : S_TEXT/UTF8
Codec ID/Info : UTF-8 Plain Text
Title : eng-sub
Language : English
Default : No
Forced : No
Statistics Tags Issue : v20.0.0 ('I Am The Sun') 64-bit 2018-02-03 05:52:09 / v5.6.0 ('Kenya Kane') built on May 27 2012 16:44:04 2018-02-03 10:03:05
FromStats_BitRate : 95
FromStats_Duration : 00:20:44.156000000
FromStats_FrameCount : 502
FromStats_StreamSize : 14869
Скріншоти



Джерело: та https://toloka.to/t87060.
Особиста оцінка: 8 - мені сподобалося


Бронзовий реліз (на рейтинг впливає 75% завантаженого)
 Трекер:    Зареєстрований   

Завантажити / скачати серіал українською



відео для новачків



 Зареєстрований:   2018-04-14 19:40
 Розмір:   15.61 GB 
 Оцінка серіалу:   9.1/10 (Голосів: 25)
   
Estranded 
VIP


З нами з: 09.02.14
Востаннє: 01.12.20
Повідомлень: 1527

2018-02-08 23:04  
Як часто додаватимуться серії?
Anonymous 







2018-02-09 08:18  
Estranded написано:
Як часто додаватимуться серії?

По ТБ транслюють 1 серію в тиждень, тож після появи нової серії у цьому релізі - https://toloka.to/t87060 , я додам і сюди.

PaRsy 
Новенький


З нами з: 03.09.13
Востаннє: 22.11.20
Повідомлень: 7

2018-02-10 18:51  
Хотів би дізнатися ... який інтервал буде між релізами та 1080p ... заздалегіть велике дякую
Anonymous 







2018-02-10 19:12  
PaRsy написано:
Хотів би дізнатися ... який інтервал буде між релізами та 1080p ... заздалегіть велике дякую

Другу серію додам завтра ввечері або у понеділок. 3 серію у суботу орієнтовно. Точного графіку немає, через непередбачувані життєві моменти. Дякую за розуміння.

Anonymous 







2018-02-12 14:35  
+ 2 серія
Anonymous 







2018-02-16 23:14  
+ 3 серія
Anonymous 







2018-02-26 12:43  
+ 4 серія
burunduk7 
Новенький


З нами з: 14.02.18
Востаннє: 28.11.20
Повідомлень: 3

2018-02-26 17:54  
можна дивитись?
Dark Invader 
Модератор відео


З нами з: 06.01.11
Востаннє: 01.12.20
Повідомлень: 3007

2018-02-26 17:58  
burunduk7 написано:
можна дивитись?

Завантажуйте і дивіться. Happy

Anonymous 







2018-03-02 22:42  
+ 5 серія
Anonymous 







2018-03-11 09:24  
+ 6 серія
Anonymous 







2018-03-17 18:11  
+ 7 серія
Anonymous 







2018-03-25 10:31  
+ 8 серія
Anonymous 







2018-03-31 18:29  
+ 9 серія
Anonymous 







2018-04-09 19:25  
+10 серія. В кінці є більше хвилини без перекладу, телеканал вже вдічі показував цю серію і обидва рази таку обрізану версію.
Anonymous 







2018-04-14 19:41  
+11 серія
Ваш часовий пояс: GMT + 2 Години

Нова тема   Відповісти