Незбагненне / Unthinkable (2010) Remux 1080p Ukr/Eng | Sub Ukr/Eng

Нові коментарі

Нова тема   Відповісти
Автор Повідомлення
IronBee 
Поважний учасник


З нами з: 08.02.10
Востаннє: 20.09.20
Повідомлень: 231

2018-02-03 11:32  
Незбагненне / Unthinkable (2010) Remux 1080p Ukr/Eng | Sub Ukr/Eng

Незбагненне / Unthinkable (2010) Remux 1080p Ukr/Eng | Sub Ukr/Eng


Жанр: драма, трилер
Країна: США



Кінокомпанія: ChubbCo Film, Senator Entertainment Co, Lleju Productions
Режисер: Ґреґор Джордан
Актори: Семюель Л.Джексон, Керрі-Енн Мосс, Майкл Шин, Стівен Рут, Лора Койовіч, Мартін Донован, Джилл Белловс, Вінсен Лареска

Сюжет:
Психологічна дуель поміж захопленим терористом, який погрожував підірвати три ядерні заряди в різних кінцях країни, та слідчим ФБР, котрому тепер терміново потрібно дізнатись, де саме заховані бомби, доки ті не вибухнули. Чи справді терорист каже правду? Чи сам він знає, де ті бомби? І чи не варто заради життя багатьох людей переступити моральні правила та норми закону, аби жорстокістю переламати впертість злочинця?


Тривалість: 01:37:07
Якість: Remux
Відео:
кодек:
розмір кадру: 1920 х 1080
бітрейт: 26,9 Mб/с

Аудіо # 1:
мова: українська
переклад: багатоголосий закадровий
кодек: 5.1
бітрейт: 384 кб/с

Аудіо # 2:
мова: українська
переклад: багатоголосий закадровий
кодек: 2.0
бітрейт: 192 кб/с

Аудіо # 3:
мова: англійська
переклад: оригінал
кодек: -HD MA 5.1
бітрейт: 3653 кб/с

Аудіо # 4:
мова: англійська
переклад: коментарі
кодек: 2.0
бітрейт: 192 кб/с

Джерело озвучення:


Субтитри # 1: (повні)
мова: українська
тип: програмні (м'які)
формат: *.srt

Субтитри # 2-3: (повні, SDH)
мова: англійська
тип: програмні (м'які)
формат: *.srt
Info
General
Unique ID : 138087334196815543104708430800377002322 (0x67E2A73743D086D983EF5789216AB952)
Complete name : D:\Films\Незбагненне Unthinkable (2010) Remux 1080p UkrEng sub Ukr[Hurtom].
Format :
Format version : Version 4 / Version 2
File size : 21.3 GiB
Duration : 1 h 37 min
Overall bit rate mode : Variable
Overall bit rate : 31.4 Mb/s
Movie name : Немыслимое
Encoded date : UTC 2018-01-30 18:10:32
Writing application : v20.0.0 ('I Am The Sun') 64-bit
Writing library : libebml v1.3.5 + v1.4.8

Video
ID : 1
Format : AVC
Format/Info : Advanced Video Codec
Format profile : [email protected]
Format settings : CABAC / 2 Ref Frames
Format settings, CABAC : Yes
Format settings, ReFrames : 2 frames
Codec ID : V_MPEG4/ISO/AVC
Duration : 1 h 37 min
Bit rate mode : Variable
Bit rate : 26.9 Mb/s
Width : 1 920 pixels
Height : 1 080 pixels
Display aspect ratio : 16:9
Frame rate mode : Constant
Frame rate : 23.976 (24000/1001) FPS
Color space : YUV
Chroma subsampling : 4:2:0
Bit depth : 8 bits
Scan type : Progressive
Bits/(Pixel*Frame) : 0.542
Stream size : 18.3 GiB (86%)
Language : English
Default : Yes
Forced : No

Audio #1
ID : 2
Format : AC-3
Format/Info : Audio Coding 3
Codec ID : A_AC3
Duration : 1 h 37 min
Bit rate mode : Constant
Bit rate : 384 kb/s
Channel(s) : 6 channels
Channel positions : Front: L C R, Side: L R, LFE
Sampling rate : 48.0 kHz
Frame rate : 31.250 FPS (1536 SPF)
Bit depth : 16 bits
Compression mode : Lossy
Stream size : 267 MiB (1%)
Language : Ukrainian
Service kind : Complete Main
Default : Yes
Forced : No

Audio #2
ID : 3
Format : AC-3
Format/Info : Audio Coding 3
Codec ID : A_AC3
Duration : 1 h 37 min
Bit rate mode : Constant
Bit rate : 192 kb/s
Channel(s) : 2 channels
Channel positions : Front: L R
Sampling rate : 48.0 kHz
Frame rate : 31.250 FPS (1536 SPF)
Bit depth : 16 bits
Compression mode : Lossy
Stream size : 133 MiB (1%)
Language : Ukrainian
Service kind : Complete Main
Default : No
Forced : No

Audio #3
ID : 4
Format :
Format/Info : Digital Theater Systems
Format profile : MA / Core
Codec ID : A_DTS
Duration : 1 h 37 min
Bit rate mode : Variable / Constant
Bit rate : 3 653 kb/s / 1 509 kb/s
Channel(s) : 6 channels
Channel positions : Front: L C R, Side: L R, LFE
Sampling rate : 48.0 kHz
Frame rate : 93.750 FPS (512 SPF)
Bit depth : 24 bits
Compression mode : Lossless / Lossy
Stream size : 2.48 GiB (12%)
Title : -HD
Language : English
Default : No
Forced : No

Audio #4
ID : 5
Format : AC-3
Format/Info : Audio Coding 3
Codec ID : A_AC3
Duration : 1 h 37 min
Bit rate mode : Constant
Bit rate : 192 kb/s
Channel(s) : 2 channels
Channel positions : Front: L R
Sampling rate : 48.0 kHz
Frame rate : 31.250 FPS (1536 SPF)
Bit depth : 16 bits
Compression mode : Lossy
Stream size : 133 MiB (1%)
Title : - Commentary
Language : English
Service kind : Complete Main
Default : No
Forced : No

Text #1
ID : 6
Format : UTF-8
Codec ID : S_TEXT/UTF8
Codec ID/Info : UTF-8 Plain Text
Duration : 1 h 28 min
Bit rate : 117 b/s
Count of elements : 1495
Stream size : 76.6 KiB (0%)
Language : Ukrainian
Default : No
Forced : No

Text #2
ID : 7
Format : UTF-8
Codec ID : S_TEXT/UTF8
Codec ID/Info : UTF-8 Plain Text
Duration : 1 h 28 min
Bit rate : 77 b/s
Count of elements : 1331
Stream size : 50.3 KiB (0%)
Language : English
Default : No
Forced : No

Text #3
ID : 8
Format : UTF-8
Codec ID : S_TEXT/UTF8
Codec ID/Info : UTF-8 Plain Text
Duration : 1 h 29 min
Bit rate : 81 b/s
Count of elements : 1487
Stream size : 53.2 KiB (0%)
Title : SDH
Language : English
Default : No
Forced : No

Menu
00:00:00.000 : en:Chapter 01
00:04:30.896 : en:Chapter 02
00:10:19.494 : en:Chapter 03
00:15:23.131 : en:Chapter 04
00:19:52.983 : en:Chapter 05
00:25:29.486 : en:Chapter 06
00:29:13.335 : en:Chapter 07
00:35:22.120 : en:Chapter 08
00:40:32.639 : en:Chapter 09
00:47:36.562 : en:Chapter 10
00:53:36.797 : en:Chapter 11
00:58:34.177 : en:Chapter 12
01:04:05.675 : en:Chapter 13
01:08:56.007 : en:Chapter 14
01:15:51.589 : en:Chapter 15
01:22:00.374 : en:Chapter 16
Скріншоти




Наданий сирий звук: akon111
Зведення звуку: Breniak
Постер: Gelios
Українські субтитри: richman

Джерело: &
Особиста оцінка: 10


Золотий реліз (завантажене не впливає на рейтинг)
 Трекер:    Зареєстрований   

Завантажити / скачати фільм українською



відео для новачків



 Зареєстрований:   2018-02-03 11:32
 Розмір:   21.28 GB 
 Оцінка фільму:   9.5/10 (Голосів: 11)
   
Інші релізи
   Незбагненне / Unthinkable (2010) AVC Ukr/Eng | Sub Ukr/Eng drop_plz  5 / 0   2.52 GB   2019-06-29 23:02 
   Незбагненне / Unthinkable (2010) 1080p Ukr/Eng | sub Ukr Vladdrako17  2 / 0   10.64 GB   2013-02-14 19:48 
   Незбагненне / Unthinkable (2010) 720p-mini Ukr/Eng | Sub Ukr AngryBirdsUA  3 / 0   2.59 GB   2012-03-20 21:27 
   Незбагненне / Unthinkable (2010) Breniak  4 / 0   1.33 GB   2012-01-22 14:29 
   Немислиме / Unthinkable (2010) Eng | sub Ukr richman  2 / 0   1.46 GB   2011-06-10 15:06 
FLEISCHER von Steiner 
Новенький


З нами з: 03.08.14
Востаннє: 09.09.20
Повідомлень: 5

2020-05-12 13:38  
Бомба із баллоном плутонія із Чернівців забавно виглядає)))
А сам фільм тримає в напруженні, кльово знято

Ваш часовий пояс: GMT + 2 Години

Нова тема   Відповісти