Богдан Гаврилишин. Місія – Свобода (2012) 720p

Нові коментарі

Нова тема   Відповісти
Автор Повідомлення
Леля22 
Забанено
Забанено


З нами з: 22.07.15
Востаннє: 07.08.18
Повідомлень: 1025

2018-02-02 20:10  
Богдан Гаврилишин. Місія – Свобода (2012) 720p

Богдан Гаврилишин. Місія – Свобода (2012) 720p


Жанр: біографічний, документальний
Країна: Україна

Телеканал / кіностудія: Виробництво Володимира Кузнєцова за сприяння Благодійного фонду Богдана Гаврилишина
Режисер: Володимир Кузнєцов
У фільмі знімалися: Богдан Гаврилишин, Леоніда Гаврилишин, Любомир Гузар, Орест Субтельний та інші

Сюжет:
Якщо схарактеризувати стрічку кількома словами, то це 52-хвилинний портрет людини, яка з дитинства усвідомила потребу постійно вчитися і завжди говорити правду, а ще – необхідність відчувати свободу.
Життєвий приклад Богдана Дмитровича, який розпочинав свою кар'єру, працюючи лісорубом та офіціантом у Канаді, і став науковцем зі світовим іменем – доктором економіки університету Женеви, почесним доктором у п'яти університетах Канади та України, – надихне молоде покоління глибше пізнавати себе і займатися самоосвітою.

Фільм заснований на книзі спогадів Богдана Гаврилишина «Залишаюсь українцем».

Тривалість: 00:52:10
Якість: 720p
Відео:
кодек:
розмір кадру: 1280 х 720 (16:9)
бітрейт: 1 525 кб/с

Аудіо:
мова: українська
переклад: оригінал
кодек: 2.0
бітрейт: 126 кб/с
Info
General
Format : MPEG-4
Format profile : Base Media / Version 2
Codec ID : mp42 (isom/mp42)
File size : 617 MiB
Duration : 52 min 10 s
Overall bit rate mode : Variable
Overall bit rate : 1 654 kb/s
Encoded date : UTC 2016-08-22 04:31:35
Tagged date : UTC 2016-08-22 04:31:35
gsst : 0
gstd : 3130142

Video
ID : 1
Format : AVC
Format/Info : Advanced Video Codec
Format profile : [email protected]
Format settings : CABAC / 3 Ref Frames
Format settings, CABAC : Yes
Format settings, RefFrames : 3 frames
Codec ID : avc1
Codec ID/Info : Advanced Video Coding
Duration : 52 min 10 s
Bit rate : 1 525 kb/s
Width : 1 280 pixels
Height : 720 pixels
Display aspect ratio : 16:9
Frame rate mode : Constant
Frame rate : 25.000 FPS
Color space : YUV
Chroma subsampling : 4:2:0
Bit depth : 8 bits
Scan type : Progressive
Bits/(Pixel*Frame) : 0.066
Stream size : 569 MiB (92%)
Title : ISO Media file produced by Google Inc.
Encoded date : UTC 2016-08-22 04:31:35
Tagged date : UTC 2016-08-22 04:31:35

Audio
ID : 2
Format :
Format/Info : Advanced Audio Codec
Format profile : LC
Codec ID : mp4a-40-2
Duration : 52 min 10 s
Bit rate mode : Variable
Bit rate : 126 kb/s
Channel(s) : 2 channels
Channel positions : Front: L R
Sampling rate : 44.1 kHz
Frame rate : 43.066 FPS (1024 SPF)
Compression mode : Lossy
Stream size : 46.9 MiB (8%)
Title : ISO Media file produced by Google Inc.
Encoded date : UTC 2016-08-22 04:31:35
Tagged date : UTC 2016-08-22 04:31:35
Скріншоти










Джерело: (Volodymyr Kuznietsov)


Золотий реліз (завантажене не впливає на рейтинг)
 Трекер:    Зареєстрований   

Завантажити / скачати фільм українською



відео для новачків



 Зареєстрований:   2018-02-02 20:10
 Розмір:   617 MB 
 Оцінка фільму:   9.6/10 (Голосів: 7)
   
Леля22 
Забанено
Забанено


З нами з: 22.07.15
Востаннє: 07.08.18
Повідомлень: 1025

2018-02-02 20:14  
nolikest 
Свій


З нами з: 18.06.14
Востаннє: 30.05.19
Повідомлень: 61

2018-02-08 13:11  
Богдан Гаврилишин цікава особистість. Продивився курс лекцій на Prometeus і вони мені сподобалися, цікаві речі він там розказує. А цей документальний фільм не дуже сподобався, але якщо вам цікаво більше дізнатися про цього українського діяча, то сміливо дивіться.
Ваш часовий пояс: GMT + 2 Години

Нова тема   Відповісти