Джей та Мовчазний Боб завдають удар у відповідь / Jay and Silent Bob Strike Back (2001) 720p Ukr/Eng | Sub Eng

Нові коментарі

Нова тема   Відповісти
Автор Повідомлення
Omikron 
VIP


З нами з: 03.01.12
Востаннє: 01.09.18
Повідомлень: 327

2018-02-02 18:54  
Джей та Мовчазний Боб завдають удар у відповідь / Jay and Silent Bob Strike Back (2001) 720p Ukr/Eng | Sub Eng



Жанр: Комедія
Країна: США



Кінокомпанія: Dimension films
Режисер: Кевін Сміт
Актори: Джейсон Мьюз, Кевін Сміт, Бен Афлек, Мет Деймон, Шенон Елізабет, Еліза Душку, Алі Лартер та інші

Сюжет:
Джей та Мовчазний Боб їдуть у Голівуд аби зірвати знімання екранізації коміксу «Обкурок і Хрон», заснованого на реальних подіях з їхнього життя, через те, що їм не було заплачено за це грошей..


Українською мовою озвучено студією Омікрон спеціально для HURTOM.COM


Тривалість: 01:44:43
Якість: 720p
Відео:
кодек:
розмір кадру: 1280x542
бітрейт: 7260 кб/с

Аудіо # 1:
мова: українська | Омікрон
переклад: багатоголосий закадровий
кодек: 5.1
бітрейт: 448 кб/с

Аудіо # 2:
мова: англійська
переклад: оригінал
кодек: 5.1
бітрейт: 448 кб/с

Субтитри :
мова: англійська
тип: програмні (м'які)
формат: *.srt
Скріншоти










Звіт Info

Format :
Format version : Version 4 / Version 2
File size : 5.96 GiB
Duration : 1 h 44 min
Overall bit rate : 8 126 kb/s
Encoded date : UTC 2018-02-01 18:28:59
Writing application : v9.9.0 ('Pick Up') 64bit
Writing library : libebml v1.3.4 + v1.4.5

Video
ID : 1
Format : AVC
Format/Info : Advanced Video Codec
Format profile : [email protected]
Format settings, CABAC : Yes
Format settings, ReFrames : 8 frames
Codec ID : V_MPEG4/ISO/AVC
Duration : 1 h 44 min
Bit rate : 7 260 kb/s
Width : 1 280 pixels
Height : 542 pixels
Display aspect ratio : 2.35:1
Frame rate mode : Constant
Frame rate : 23.976 (24000/1001) FPS
Color space : YUV
Chroma subsampling : 4:2:0
Bit depth : 8 bits
Scan type : Progressive
Bits/(Pixel*Frame) : 0.436
Stream size : 5.30 GiB (89%)
Writing library : core 67 r1145M d2e1e1c
Encoding settings : cabac=1 / ref=8 / deblock=1:-3:-3 / analyse=0x3:0x133 / me=umh / subme=9 / psy_rd=1.0:0.0 / mixed_ref=1 / me_range=32 / chroma_me=1 / trellis=2 / 8x8dct=1 / cqm=0 / deadzone=21,11 / chroma_qp_offset=-2 / threads=6 / nr=0 / decimate=1 / mbaff=0 / bframes=3 / b_pyramid=1 / b_adapt=2 / b_bias=0 / direct=3 / wpredb=1 / keyint=250 / keyint_min=25 / scenecut=40 / rc=2pass / bitrate=7260 / ratetol=1.0 / qcomp=0.60 / qpmin=10 / qpmax=51 / qpstep=4 / cplxblur=20.0 / qblur=0.5 / ip_ratio=1.40 / pb_ratio=1.30 / aq=1:0.80
Language : English
Default : Yes
Forced : No

Audio #1
ID : 2
Format : AC-3
Format/Info : Audio Coding 3
Mode extension : CM (complete main)
Format settings, Endianness : Big
Codec ID : A_AC3
Duration : 1 h 44 min
Bit rate mode : Constant
Bit rate : 448 kb/s
Channel(s) : 6 channels
Channel positions : Front: L C R, Side: L R, LFE
Sampling rate : 48.0 kHz
Frame rate : 31.250 FPS (1536 spf)
Compression mode : Lossy
Delay relative to video : 8 ms
Stream size : 336 MiB (6%)
Title : MVO Omikron studio for Hurtom.com
Language : Ukrainian
Default : Yes
Forced : No

Audio #2
ID : 3
Format : AC-3
Format/Info : Audio Coding 3
Mode extension : CM (complete main)
Format settings, Endianness : Big
Codec ID : A_AC3
Duration : 1 h 44 min
Bit rate mode : Constant
Bit rate : 448 kb/s
Channel(s) : 6 channels
Channel positions : Front: L C R, Side: L R, LFE
Sampling rate : 48.0 kHz
Frame rate : 31.250 FPS (1536 spf)
Compression mode : Lossy
Delay relative to video : 8 ms
Stream size : 336 MiB (6%)
Language : English
Default : No
Forced : No

Text
ID : 4
Format : UTF-8
Codec ID : S_TEXT/UTF8
Codec ID/Info : UTF-8 Plain Text
Duration : 1 h 43 min
Bit rate : 79 b/s
Count of elements : 1814
Stream size : 60.3 KiB (0%)
Language : English
Default : No
Forced : No


Авторський реліз (завантажувати можна без реєстрації)
 Трекер:    Зареєстрований   

Завантажити / скачати фільм українською



відео для новачків



 Зареєстрований:   2018-02-02 19:06
 Розмір:   5.96 GB 
 Оцінка фільму:   9.1/10 (Голосів: 23)
   
McLom 
Свій


З нами з: 16.08.09
Востаннє: 30.03.19
Повідомлень: 103

2018-02-02 20:01  
українську доріжку можна окремим файлом ? дайте лінк будь ласка
McLom 
Свій


З нами з: 16.08.09
Востаннє: 30.03.19
Повідомлень: 103

2018-02-03 22:02  
оперативніше хтось може реагувати ?
Omikron 
VIP


З нами з: 03.01.12
Востаннє: 01.09.18
Повідомлень: 327

2018-02-04 01:17  
McLom
хто та на що має вам реагувати? Ок, відповім на ваше перше питання. Відповідь - ні.

McLom 
Свій


З нами з: 16.08.09
Востаннє: 30.03.19
Повідомлень: 103

2018-02-04 21:27  
Omikron ну і відповідь чому ваш трекер ніколи не матиме ні успіху ні підтримки ні відповідно майбутнього, бо жити по принципу українець українцю вовк і ніїто нікому нчого не винен це простіше всього, але якщо я просив то мабудь воно мені треба !
equator 
Новенький


З нами з: 17.12.13
Востаннє: 19.04.19
Повідомлень: 6

2018-02-05 16:01  
чудова озвучка! як і всі, що робить студія Омікрон. дякую!
sv47 
Новенький


З нами з: 09.09.12
Востаннє: 05.04.19
Повідомлень: 1

2018-02-11 00:27  
McLom
інтернет вільний! як і ресурси тут, скачайте виріжте дорожку, створіть роздачу, хай всі такі як Ви зможуть її скачати, правда таких більше не буде... 17 років пройшло, наврядче багато людей мають фільм в який вони б хотіли вставити доріжку не качаючи фільм.... якщо Вам "треба" то не просіть інших робити за Вас зайву роботу.

Omikron 
VIP


З нами з: 03.01.12
Востаннє: 01.09.18
Повідомлень: 327

2018-02-15 20:50  
McLom
Дякую, в нас все добре. А щодо ситуації з підняттям вами галасу, мовляв вам ніхто терміново не виклав доріжку, (яка в жодному нашому релізі ніколи окремо не викладалась) з усією повагою приведу приклад: пам'ятаєте радянський мультик де були "двоє із ларца"? Як вони пальці загинали Вовкє-дурачку, потім тісто місили, пиріжки пекли? І що у висновку сталося? А сталося те, що ті двоє й їсти стали замість Вовкі.

akon111 
Відео Гуртом - запис з ТБ
Відео Гуртом - запис з ТБ


З нами з: 28.08.09
Востаннє: 18.04.19
Повідомлень: 1251

2018-03-21 13:06  
чудова озвучка)
mykolka2 
Новенький


З нами з: 02.08.15
Востаннє: 18.04.19
Повідомлень: 5

2019-02-20 17:38  
я гадав, що російський переклад вже ніхто не переплюне. як же я помилявся Wide grin
Ваш часовий пояс: GMT + 2 Години

Нова тема   Відповісти