Моя краля / Ma Loute (2016) 1080p Ukr/Fre

Нові коментарі

Нова тема   Відповісти
Автор Повідомлення
staf777 
Відео Гуртом - підтримка та поширення
Відео Гуртом - підтримка та поширення


З нами з: 16.11.16
Востаннє: 24.05.19
Повідомлень: 2382

2018-02-02 18:26  
Моя краля / Ma Loute (2016) 1080p Ukr/Fre

Моя краля / Ma Loute (2016) 1080p Ukr/Fre


Жанр: комедія
Країна: Франція



Кінокомпанія: 3B Productions, Twenty Twenty Vision Filmproduktion GmbH, Pallas Film
Режисер: Брюно Дюмон
Актори: Жюльєт Бінош, Валерія Бруні-Тедескі, Фабріс Лукіні

Сюжет:
Події розгортаються влітку 1910 року на півночі Франції. Затишна і тиха бухта, що роками приваблювала туристів, стає небезпечною. Один по одному тут зникають одинокі мандрівники. Найкраще ці місця знає родина Брефорів. Вони мешкають поблизу і заробляють на життя тим, що збирають мідії. Щоліта їхній усамітнений спосіб життя порушують ванн Петегеми – буржуазне сімейство, яке явно недолюблює місцевих жителів. Взаємна антипатія між родинами не заважає юним Малюту Брефору і Біллі ванн Петегем будувати романтичні стосунки. За всім цим спостерігають інспектори, які прибули розслідувати таємничі зникнення.


Тривалість: 02:03:05
Якість: 1080p
Відео:
кодек:
розмір кадру: 1920x800
бітрейт: 10,2 Mб/с

Аудіо # 1:
мова: українська
переклад: багатоголосий закадровий
кодек: 2.0
бітрейт: 192 кб/с

Аудіо # 2:
мова: французька
переклад: оригінал
кодек: 5.1
бітрейт: 1509 кб/с
Info
General
Unique ID : 216095165348515872301644411924803431927 (0xA2926A3C02ED28CD82810F7CDF832DF7)
Complete name : K:\Майбутні релізи\Ma Loute (2016) 1080p [Ukr][Fre][Hurtom].
Format :
Format version : Version 4 / Version 2
File size : 10.2 GiB
Duration : 2 h 3 min
Overall bit rate : 11.9 Mb/s
Movie name : Ma Loute (2016) 1080p [Ukr][Fre][Hurtom]
Encoded date : UTC 2018-02-02 14:56:28
Writing application : v9.8.0 ('Kuglblids') 64bit
Writing library : libebml v1.3.4 + v1.4.5

Video
ID : 1
Format : AVC
Format/Info : Advanced Video Codec
Format profile : [email protected]
Format settings, CABAC : Yes
Format settings, ReFrames : 5 frames
Codec ID : V_MPEG4/ISO/AVC
Duration : 2 h 3 min
Bit rate : 10.2 Mb/s
Width : 1 920 pixels
Height : 800 pixels
Display aspect ratio : 2.40:1
Frame rate mode : Constant
Frame rate : 23.976 (24000/1001) FPS
Color space : YUV
Chroma subsampling : 4:2:0
Bit depth : 8 bits
Scan type : Progressive
Bits/(Pixel*Frame) : 0.277
Stream size : 8.77 GiB (86%)
Title : Ma Loute (2016)
Writing library : core 148 r2699+6+41 29a38aa Yuuki [[email protected]:2:0 X86_64][GCC 5.3.0]
Encoding settings : cabac=1 / ref=5 / deblock=1:-3:-3 / analyse=0x3:0x113 / me=umh / subme=11 / psy=1 / fade_compensate=0.00 / psy_rd=1.00:0.05 / mixed_ref=1 / me_range=32 / chroma_me=1 / trellis=2 / 8x8dct=1 / cqm=0 / deadzone=21,11 / fast_pskip=0 / chroma_qp_offset=-2 / threads=24 / lookahead_threads=4 / sliced_threads=0 / nr=0 / decimate=1 / interlaced=0 / bluray_compat=0 / constrained_intra=0 / fgo=0 / bframes=8 / b_pyramid=2 / b_adapt=2 / b_bias=0 / direct=3 / weightb=1 / open_gop=0 / weightp=2 / keyint=250 / keyint_min=23 / scenecut=40 / intra_refresh=0 / rc_lookahead=40 / rc=crf / mbtree=0 / crf=18.3000 / qcomp=0.60 / qpmin=0:0:0 / qpmax=69:69:69 / qpstep=4 / vbv_maxrate=50000 / vbv_bufsize=40000 / crf_max=0.0 / nal_hrd=none / filler=0 / ip_ratio=1.40 / pb_ratio=1.30 / aq=3:0.90
Language : French
Default : Yes
Forced : No

Audio #1
ID : 2
Format : AC-3
Format/Info : Audio Coding 3
Mode extension : CM (complete main)
Format settings, Endianness : Big
Codec ID : A_AC3
Duration : 2 h 3 min
Bit rate mode : Constant
Bit rate : 192 kb/s
Channel(s) : 2 channels
Channel positions : Front: L R
Sampling rate : 48.0 kHz
Frame rate : 31.250 FPS (1536 spf)
Bit depth : 16 bits
Compression mode : Lossy
Stream size : 169 MiB (2%)
Language : Ukrainian
Default : Yes
Forced : Yes

Audio #2
ID : 3
Format :
Format/Info : Digital Theater Systems
Mode : 16
Format settings, Endianness : Big
Codec ID : A_DTS
Duration : 2 h 3 min
Bit rate mode : Constant
Bit rate : 1 509 kb/s
Channel(s) : 6 channels
Channel positions : Front: L C R, Side: L R, LFE
Sampling rate : 48.0 kHz
Frame rate : 93.750 FPS (512 spf)
Bit depth : 16 bits
Compression mode : Lossy
Stream size : 1.30 GiB (13%)
Title : Original
Language : French
Default : No
Forced : No


Подяка пану AngryBirdsUA за запис з Тб та пану Hanway за синхронізацію доріжки.
Джерело: &
Особиста оцінка: 0 - не дивився


 Трекер:    Зареєстрований   

Завантажити / скачати фільм українською



відео для новачків



 Зареєстрований:   2018-02-02 18:26
 Розмір:   10.24 GB 
 Оцінка фільму:   8/10 (Голосів: 10)
   
Інші релізи
   Моя краля / Ma Loute (2016) AngryBirdsUA  6 / 0   1.46 GB   2017-06-11 17:08 
staf777 
Відео Гуртом - підтримка та поширення
Відео Гуртом - підтримка та поширення


З нами з: 16.11.16
Востаннє: 24.05.19
Повідомлень: 2382

2018-02-02 18:49  
Дивитися тільки під добрий стаф Happy
pekodin 
Частий відвідувач


З нами з: 02.04.12
Востаннє: 14.05.19
Повідомлень: 33

2018-02-02 20:47  
трохи чудернадський фільм )
Custo 12 
Свій


З нами з: 08.11.16
Востаннє: 24.05.19
Повідомлень: 91

2018-02-02 21:43  
Персонажі дуже колоритні, зйомки красиві. Але сюжет - просто пипка! Не раджу. Розчарування. Як зверху писали, мо` під траву кому й зайде.
t.soohov 
Новенький


З нами з: 08.05.15
Востаннє: 20.05.19
Повідомлень: 5

2018-02-03 22:41  
Може варто було би попередити, що у фільмі присутні сцени канібалізму? Або хоч би зробити помітку "не для сімейного перегляду".
MAGnitos 
Новенький


З нами з: 30.10.16
Востаннє: 24.05.19
Повідомлень: 23

2018-02-20 22:17  
t.soohov
А ще варто було не спойлерити про події фільму?

yurchyks 
Новенький


З нами з: 04.11.10
Востаннє: 04.04.19
Повідомлень: 15

2018-04-29 21:14  
Я би цей фільм охарактеризував як "Великохудожній французький ТРЕШ". Такої відбірної "бредятини" ми давно не дивилися. А саме найцікавіше в кінці, сидиш такий і думаєш, "в чому сенс фільму", ми так і не зрозуміли Wink (1)
Ваш часовий пояс: GMT + 2 Години

Нова тема   Відповісти