Диявол / Devil (2010) 1080p 2xUkr/Eng | Sub Ukr/Eng

Нові коментарі

Нова тема   Відповісти
Автор Повідомлення
staf777 
Попереджень: 1
Попереджень: 1 


З нами з: 16.11.16
Востаннє: 21.10.18
Повідомлень: 1648

2018-01-31 17:37  
Диявол / Devil (2010) 1080p 2xUkr/Eng | Sub Ukr/Eng

Диявол / Devil (2010) 1080p 2xUkr/Eng | Sub Ukr/Eng


Жанр: жахи, містика, трилер
Країна: США



Кінокомпанія: Media Rights Capital, Night Chronicles, Relativity Media
Режисер: Джон Ерік Дадл
Актори: Джеффрі Аренд, Лоґан Маршалл-Ґрін, Кріс Мессіна, Бояна Новакович, Каролін Давернас, Джейкоб Варґас, Букем Вудбайн, Метт Кревен, Джошуа Піс та інші

Сюжет:
Кілька людей, які опинилися в застряглому ліфті, з часом розуміють, що серед них присутній сам диявол...


Тривалість: 01:20:28
Якість: 1080p
Відео:
кодек:
розмір кадру: 1920x800
бітрейт: 10.1 Mб/с

Аудіо # 1:
мова: українська
переклад: багатоголосий закадровий
кодек: 2.0
бітрейт: 192 кб/с

Аудіо # 2:
мова: українська
переклад: багатоголосий закадровий
кодек: 2.0
бітрейт: 192 кб/с

Аудіо # 3:
мова: англійська
переклад: оригінал
кодек: 5.1
бітрейт: 1509 кб/с

Субтитри # 1:
мова: українська
тип: програмні (м'які)
формат: *.srt

Субтитри # 2:
мова: англійська
тип: програмні (м'які)
формат: *.srt
Info
General
Unique ID : 84986807639569104471199597231578141390 (0x3FEFDD201A311A97A55C40F10159D2CE)
Complete name : K:\Жахи\Devil (2010) 1080p [Ukr][Eng] [Sub Ukr Eng][Hurtom].
Format :
Format version : Version 4 / Version 2
File size : 6.73 GiB
Duration : 1 h 20 min
Overall bit rate : 12.0 Mb/s
Movie name : Devil (2010) 1080p [Ukr][Eng] [Sub Ukr Eng][Hurtom]
Encoded date : UTC 2018-10-09 07:04:25
Writing application : v24.0.0 ('Beyond The Pale') 64-bit
Writing library : libebml v1.3.6 + v1.4.9
Cover : Yes
Attachments : cover.jpg

Video
ID : 1
Format : AVC
Format/Info : Advanced Video Codec
Format profile : [email protected]
Format settings : CABAC / 5 Ref Frames
Format settings, CABAC : Yes
Format settings, ReFrames : 5 frames
Codec ID : V_MPEG4/ISO/AVC
Duration : 1 h 20 min
Bit rate : 10.1 Mb/s
Width : 1 920 pixels
Height : 800 pixels
Display aspect ratio : 2.40:1
Frame rate mode : Constant
Frame rate : 23.976 FPS
Color space : YUV
Chroma subsampling : 4:2:0
Bit depth : 8 bits
Scan type : Progressive
Bits/(Pixel*Frame) : 0.274
Stream size : 5.67 GiB (84%)
Title : Devil (2010)
Writing library : core 107 r1766 f9f0035
Encoding settings : cabac=1 / ref=5 / deblock=1:-3:-3 / analyse=0x3:0x113 / me=umh / subme=10 / psy=1 / psy_rd=1.05:0.10 / mixed_ref=1 / me_range=32 / chroma_me=1 / trellis=2 / 8x8dct=1 / cqm=2 / deadzone=21,11 / fast_pskip=0 / chroma_qp_offset=-2 / threads=12 / sliced_threads=0 / nr=0 / decimate=1 / interlaced=0 / constrained_intra=0 / bframes=6 / b_pyramid=2 / b_adapt=2 / b_bias=0 / direct=3 / weightb=1 / open_gop=0 / weightp=2 / keyint=250 / keyint_min=23 / scenecut=40 / intra_refresh=0 / rc_lookahead=40 / rc=2pass / mbtree=0 / bitrate=10097 / ratetol=1.0 / qcomp=0.70 / qpmin=10 / qpmax=51 / qpstep=4 / cplxblur=20.0 / qblur=0.5 / vbv_maxrate=45000 / vbv_bufsize=40000 / ip_ratio=1.40 / pb_ratio=1.30 / aq=1:1.00 / nal_hrd=none
Language : English
Default : Yes
Forced : No

Audio #1
ID : 2
Format : AC-3
Format/Info : Audio Coding 3
Codec ID : A_AC3
Duration : 1 h 20 min
Bit rate mode : Constant
Bit rate : 192 kb/s
Channel(s) : 2 channels
Channel positions : Front: L R
Sampling rate : 48.0 kHz
Frame rate : 31.250 FPS (1536 SPF)
Bit depth : 16 bits
Compression mode : Lossy
Stream size : 111 MiB (2%)
Title : Багатоголосий закадровий НЛО.TV
Language : Ukrainian
Service kind : Complete Main
Default : Yes
Forced : Yes

Audio #2
ID : 3
Format : AC-3
Format/Info : Audio Coding 3
Codec ID : A_AC3
Duration : 1 h 20 min
Bit rate mode : Constant
Bit rate : 192 kb/s
Channel(s) : 2 channels
Channel positions : Front: L R
Sampling rate : 48.0 kHz
Frame rate : 31.250 FPS (1536 SPF)
Bit depth : 16 bits
Compression mode : Lossy
Stream size : 111 MiB (2%)
Title : [UA-MVO-CINE]
Language : Ukrainian
Service kind : Complete Main
Default : No
Forced : No

Audio #3
ID : 4
Format :
Format/Info : Digital Theater Systems
Codec ID : A_DTS
Duration : 1 h 20 min
Bit rate mode : Constant
Bit rate : 1 509 kb/s
Channel(s) : 6 channels
Channel positions : Front: L C R, Side: L R, LFE
Sampling rate : 48.0 kHz
Frame rate : 93.750 FPS (512 SPF)
Bit depth : 24 bits
Compression mode : Lossy
Stream size : 869 MiB (13%)
Title : 5.1 1509 kbps
Language : English
Default : No
Forced : No

Text #1
ID : 5
Format : UTF-8
Codec ID : S_TEXT/UTF8
Codec ID/Info : UTF-8 Plain Text
Duration : 1 h 14 min
Bit rate : 89 b/s
Count of elements : 890
Stream size : 48.9 KiB (0%)
Language : Ukrainian
Default : No
Forced : No

Text #2
ID : 6
Format : UTF-8
Codec ID : S_TEXT/UTF8
Codec ID/Info : UTF-8 Plain Text
Duration : 1 h 14 min
Bit rate : 57 b/s
Count of elements : 1021
Stream size : 31.2 KiB (0%)
Language : English
Default : No
Forced : No
Скріншоти



Джерело: &
За українську доріжку подяка xslim, Sando7, ratbol, patriot2305, за допомогу з субтитрами з DVD R5 - antik_2008, igor911, krigg070.

Особиста оцінка: 0 - не дивився


 Трекер:    Зареєстрований   

Завантажити / скачати фільм українською



відео для новачків



 Зареєстрований:   2018-10-09 10:42
 Розмір:   6.73 GB 
 Оцінка фільму:   7.8/10 (Голосів: 16)
   
Інші релізи
   Диявол / Devil (2010) AVC 2xUkr/Eng | Sub Ukr/Eng staf777  4 / 0   1.56 GB   2018-10-09 09:25 
   Диявол / Devil (2010) 2xUkr/Eng | Sub Ukr/Eng 21jumpstreet  2 / 0   1.46 GB   2018-04-28 19:16 
   Диявол / Devil (2010) Remux 1080p Ukr/Eng | Sub Eng famous37  4 / 0   16.41 GB   2016-02-16 22:52 
   Диявол / Devil (2010) Eng | Sub Ukr antik_2008  0 / 0   1.16 GB   2011-03-11 02:00 
antik_2008 
Релізер і модератор відео


З нами з: 20.10.08
Востаннє: 21.10.18
Повідомлень: 1646

2018-01-31 17:50  
Гарний фільм.
bot 
робот


З нами з: 30.09.07
Востаннє: 26.05.05
Повідомлень: 19984

2018-02-02 14:51  
Тему перенесено з Анонси релізів до форуму Фільми в HD


staf777

0mage0 
VIP


З нами з: 06.10.15
Востаннє: 21.10.18
Повідомлень: 368

2018-02-21 08:57  
Дивитися можна, але фільм, певно, більше розрахований на тих, хто вірить в бога, диявола і всю цю мішуру.

Виходить, диявол зібрав у ліфті шахраїв та чувака, що скоїв смертельне ДТП та втік, в результаті вбив шахраїв та "помилував" винуватся смертельного ДТП?
Почали довбати стіну, але чому не могли запустити або вручну перемістити ліфт до найближчих дверей? :/

oster_ok 
Відео Гуртом - підтримка та поширення
Відео Гуртом - підтримка та поширення


З нами з: 20.11.11
Востаннє: 21.10.18
Повідомлень: 125

2018-04-30 02:07  
постер

staf777 
Попереджень: 1
Попереджень: 1 


З нами з: 16.11.16
Востаннє: 21.10.18
Повідомлень: 1648

2018-10-09 10:44  
Додав доріжку від 
Ваш часовий пояс: GMT + 2 Години

Нова тема   Відповісти