Затьмарення / Затемнення / Regression (2015) 1080p Ukr/Eng | Sub Eng

Нові коментарі

Нова тема   Відповісти
Останній раз роздавалося Vovan4uk8 (2019-04-23)
Автор Повідомлення
staf777 
Відео Гуртом - підтримка та поширення
Відео Гуртом - підтримка та поширення


З нами з: 16.11.16
Востаннє: 24.04.19
Повідомлень: 2284

2018-01-31 11:58  
Затьмарення / Затемнення / Regression (2015) 1080p Ukr/Eng | Sub Eng

Затьмарення / Затемнення / Regression (2015) 1080p Ukr/Eng | Sub Eng


Жанр: містика, трилер, жахи
Країна: Іспанія, Канада




Кінокомпанія: Mod Producciones, First Generation Films, FilmNation Entertainment
Режисер: Алехандро Аменабар / Alejandro Amenábar
Актори: Ітан Гоук / Ethan Hawke, Ема Вотсон / Emma Watson, Девід Тьюліс / David Thewlis, Лотер Блюто / Lothaire Bluteau, Дейл Діккі / Dale Dickey, Девід Денсік / David Dencik, Девон Бостік / Devon Bostick, Аарон Ешмор / Aaron Ashmore, Пітер МакНейл / Peter MacNeill, Адам Бутчер / Adam Butcher, Аарон Абрамс / Aaron Abrams, Джейкоб Нієм / Jacob Neayem, Джанет Портер / Janet Porter та інші

Сюжет:
У стрічці йдеться про чоловіка, якого несподівано звинувачують у сексуальному насильстві щодо власної доньки. При цьому головний герой нічого не пам'ятає і не розуміє, що насправді відбувається. Він вирішує звернутися до психіатра, маючи надію, що той зможе допомогти йому відновити спогади. Однак із часом герой розуміє, що насправді став заручником чиєїсь змови.


Тривалість: 01:46:04
Якість: 1080p
Відео:
кодек:
бітрейт: 15,6 Mб/с

Аудіо # 1:
мова: українська
переклад: багатоголосий закадровий
кодек: 2.0
бітрейт: 192 кб/с

Аудіо # 2:
мова: англійська
переклад: оригінал
кодек: 5.1
бітрейт: 1509 кб/с

Субтитри:
мова: англійська
тип: програмні (м'які)
формат: *.srt
Info
General
Unique ID : 185087418619695276586682240752030193844 (0x8B3E8A498EC232EB9D2626C22A7618B4)
Complete name : K:\Майбутні релізи\Regression (2015) 1080p [Ukr][Eng] [Sub Ukr Eng][Hurtom].
Format :
Format version : Version 4 / Version 2
File size : 12.8 GiB
Duration : 1 h 46 min
Overall bit rate : 17.3 Mb/s
Movie name : Regression (2015) 1080p [Ukr][Eng] [Sub Ukr Eng][Hurtom]
Encoded date : UTC 2018-02-01 07:09:34
Writing application : v9.8.0 ('Kuglblids') 64bit
Writing library : libebml v1.3.4 + v1.4.5
Cover : Yes
Attachments : cover.png

Video
ID : 1
Format : AVC
Format/Info : Advanced Video Codec
Format profile : [email protected]
Format settings, CABAC : Yes
Format settings, ReFrames : 5 frames
Codec ID : V_MPEG4/ISO/AVC
Duration : 1 h 46 min
Bit rate : 15.6 Mb/s
Width : 1 920 pixels
Height : 802 pixels
Display aspect ratio : 2.40:1
Frame rate mode : Constant
Frame rate : 23.976 (24000/1001) FPS
Color space : YUV
Chroma subsampling : 4:2:0
Bit depth : 8 bits
Scan type : Progressive
Bits/(Pixel*Frame) : 0.422
Stream size : 11.5 GiB (90%)
Title : Regression (2015)
Writing library : core 146 r2538 121396c
Encoding settings : cabac=1 / ref=5 / deblock=1:-3:-3 / analyse=0x3:0x133 / me=umh / subme=11 / psy=1 / psy_rd=1.00:0.00 / mixed_ref=1 / me_range=32 / chroma_me=1 / trellis=2 / 8x8dct=1 / cqm=0 / deadzone=21,11 / fast_pskip=0 / chroma_qp_offset=-2 / threads=48 / lookahead_threads=6 / sliced_threads=0 / nr=0 / decimate=0 / interlaced=0 / bluray_compat=0 / constrained_intra=0 / bframes=9 / b_pyramid=2 / b_adapt=2 / b_bias=0 / direct=3 / weightb=1 / open_gop=0 / weightp=2 / keyint=240 / keyint_min=23 / scenecut=40 / intra_refresh=0 / rc_lookahead=150 / rc=crf / mbtree=0 / crf=14.8 / qcomp=0.60 / qpmin=0 / qpmax=69 / qpstep=4 / vbv_maxrate=62500 / vbv_bufsize=78125 / crf_max=0.0 / nal_hrd=none / filler=0 / ip_ratio=1.40 / pb_ratio=1.30 / aq=1:0.80
Default : No
Forced : No

Audio #1
ID : 2
Format : AC-3
Format/Info : Audio Coding 3
Mode extension : CM (complete main)
Format settings, Endianness : Big
Codec ID : A_AC3
Duration : 1 h 46 min
Bit rate mode : Constant
Bit rate : 192 kb/s
Channel(s) : 2 channels
Channel positions : Front: L R
Sampling rate : 48.0 kHz
Frame rate : 31.250 FPS (1536 spf)
Bit depth : 16 bits
Compression mode : Lossy
Stream size : 146 MiB (1%)
Title : [UA-MVO][Cine+]
Language : Ukrainian
Default : Yes
Forced : Yes

Audio #2
ID : 3
Format :
Format/Info : Digital Theater Systems
Mode : 16
Format settings, Endianness : Big
Codec ID : A_DTS
Duration : 1 h 46 min
Bit rate mode : Constant
Bit rate : 1 509 kb/s
Channel(s) : 6 channels
Channel positions : Front: L C R, Side: L R, LFE
Sampling rate : 48.0 kHz
Frame rate : 93.750 FPS (512 spf)
Bit depth : 24 bits
Compression mode : Lossy
Stream size : 1.12 GiB (9%)
Title : Original
Language : English
Default : No
Forced : No

Text
ID : 4
Format : UTF-8
Codec ID : S_TEXT/UTF8
Codec ID/Info : UTF-8 Plain Text
Duration : 1 h 37 min
Bit rate : 55 b/s
Count of elements : 1079
Stream size : 40.0 KiB (0%)
Title : English
Language : English
Default : No
Forced : No
Скріншоти



Подяка за українську доріжку п.Sando7
Джерело: &
Особиста оцінка: 0 - не дивився


 Трекер:    Зареєстрований   

Завантажити / скачати фільм українською



відео для новачків



 Зареєстрований:   2018-02-01 10:40
 Розмір:   12.81 GB 
 Оцінка фільму:   6.9/10 (Голосів: 9)
   
bot 
робот


З нами з: 30.09.07
Востаннє: 26.05.05
Повідомлень: 21237

2018-02-01 10:38  
Тему перенесено з Анонси релізів до форуму Фільми в HD


staf777

Siegfried 
VIP


З нами з: 01.11.11
Востаннє: 23.04.19
Повідомлень: 251

2018-02-04 15:43  
Майже всеь фільм не залишають здогади, що все дійство - це якась маячня, завуальована під містику і "сотоністів", а в останніх хвилин 10 це просто підтверджується головними героями.

Рекомендувати фільм можна лише лікарям, що мають справу з психічно хворими особами.
Це їм для роботи корисно.
Іншим - не марнувати в жодному разі час.

3/10 лише за непоганих акторів.

rost863 
Новенький


З нами з: 15.11.18
Востаннє: 18.04.19
Повідомлень: 1

2019-02-28 22:01  
Піддайте швидкості будьласка! Вже тиждень не можу завантажити.
Ваш часовий пояс: GMT + 2 Години

Нова тема   Відповісти