Примарний патруль / R.I.P.D. (2013) 1080p 3xUkr/Eng | Sub Ukr/Eng

Нові коментарі

Нова тема   Відповісти
Автор Повідомлення
staf777 
Відео Гуртом - підтримка та поширення
Відео Гуртом - підтримка та поширення


З нами з: 16.11.16
Востаннє: 25.04.19
Повідомлень: 2286

2018-01-30 15:28  
Примарний патруль / R.I.P.D. (2013) 1080p 3xUkr/Eng | Sub Ukr/Eng

Примарний патруль / R.I.P.D. (2013) 1080p 3xUkr/Eng | Sub Ukr/Eng


Жанр: екшн, комедія, фентезі
Країна: США



Кінокомпанія: Universal Pictures, Original Film, Dark Horse Entertainment
Режисер: Роберт Швентке
Актори: Раян Рейнольдс, Джеф Бріджес, Кевін Бейкон, Мері-Луїз Паркер, Стефані Зостак, Роберт Неппер, Маріса Міллер, Джеймс Гонґ, Майк О'Меллі, Девін Ретрей

Сюжет:
Молодий поліцейський гине під час чергового захоплення банди злочинців. Потрапивши до потойбічного світу, він дізнається що і там немає спокою і з урахуванням його здібностей йому пропонують роботу в "ПП". Це загін з боротьби з всякою нечистю, духами і примарами, що входить до організації R.I.P.D. Умова така: цілих сто років він повинен працювати в команді безсмертних поліцейських; і виходу немає - він погоджується. У напарники йому дістається вередливий старий коп, який стирчить там ще з часів Дикого Заходу. Робота не проста, духи і різні тварини можуть ховатися навіть в світі живих, іноді переселившись в людські тіла ці копи роблять свою справу і в нашому світі, їм все під силу, вони ж еліта.


Тривалість: 01:35:55
Якість: 1080p
Відео:
кодек:
розмір кадру: 1920x816
бітрейт: 10,5 Mб/с

Аудіо # 1:
мова: українська
переклад: багатоголосий закадровий
кодек: 2.0
бітрейт: 192 кб/с

Аудіо # 2:
мова: українська
переклад: багатоголосий закадровий
кодек: 2.0
бітрейт: 192 кб/с

Аудіо # 3:
мова: українська
переклад: професійний дубльований | Mic
кодек: 2.0
бітрейт: 192 кб/с

Аудіо # 4:
мова: англійська
переклад: оригінал
кодек: 5.1
бітрейт: 1509 кб/с

Аудіо # 4:
мова: англійська
переклад: описова
кодек: 2.0
бітрейт: 192 кб/с

Субтитри # 1: (Full) | (Blu-ray CEE)
мова: українська
тип: програмні (м'які)
формат: *.srt

Субтитри # 2-4: (Full, SDH, SDH-COLORED)
мова: англійська
тип: програмні (м'які)
формат: *.srt
Info
Код:
General
Unique ID                                : 209515363407492869164978074286847826442 (0x9D9F30F3C3F826B38294D302B4B21A0A)
Complete name                            : P:\Майбутні релізи\ R.I.P.D. (2013) 1080p [3хUkr][Eng][Sub Ukr Eng][Hurtom].
Format                                   :
Format version                           : Version 4 / Version 2
File size                                : 7.42 GiB
Duration                                 : 1 h 35 min
Overall bit rate                         : 11.1 Mb/s
Movie name                               :  R.I.P.D. (2013) 1080p [3хUkr][Eng][Sub Ukr Eng][Hurtom]
Encoded date                             : UTC 2018-01-31 16:00:14
Writing application                      : v9.8.0 ('Kuglblids') 64bit
Writing library                          : libebml v1.3.4 + v1.4.5
Cover                                    : Yes
Attachments                              : cover.png / cover.jpg

Video
ID                                       : 1
Format                                   : AVC
Format/Info                              : Advanced Video Codec
Format profile                           : [email protected]
Format settings, CABAC                   : Yes
Format settings, ReFrames                : 5 frames
Codec ID                                 : V_MPEG4/ISO/AVC
Duration                                 : 1 h 35 min
Bit rate                                 : 10.5 Mb/s
Width                                    : 1 920 pixels
Height                                   : 816 pixels
Display aspect ratio                     : 2.35:1
Frame rate mode                          : Constant
Frame rate                               : 23.976 (24000/1001) FPS
Color space                              : YUV
Chroma subsampling                       : 4:2:0
Bit depth                                : 8 bits
Scan type                                : Progressive
Bits/(Pixel*Frame)                       : 0.280
Stream size                              : 7.03 GiB (95%)
Title                                    : R.I.P.D. (2013)
Writing library                          : core 140 r2377 1ca7bb9
Encoding settings                        : cabac=1 / ref=5 / deblock=1:-3:-3 / analyse=0x3:0x133 / me=umh / subme=11 / psy=1 / psy_rd=1.00:0.00 / mixed_ref=1 / me_range=32 / chroma_me=1 / trellis=2 / 8x8dct=1 / cqm=0 / deadzone=21,11 / fast_pskip=0 / chroma_qp_offset=-2 / threads=12 / lookahead_threads=1 / sliced_threads=0 / nr=0 / decimate=0 / interlaced=0 / bluray_compat=0 / constrained_intra=0 / bframes=6 / b_pyramid=2 / b_adapt=2 / b_bias=0 / direct=3 / weightb=1 / open_gop=0 / weightp=2 / keyint=240 / keyint_min=23 / scenecut=40 / intra_refresh=0 / rc=2pass / mbtree=0 / bitrate=10505 / ratetol=1.0 / qcomp=0.60 / qpmin=0 / qpmax=69 / qpstep=4 / cplxblur=20.0 / qblur=0.5 / ip_ratio=1.40 / pb_ratio=1.30 / aq=1:1.00
Language                                 : English
Default                                  : Yes
Forced                                   : No

Audio #1
ID                                       : 2
Format                                   : AC-3
Format/Info                              : Audio Coding 3
Mode extension                           : CM (complete main)
Format settings, Endianness              : Big
Codec ID                                 : A_AC3
Duration                                 : 1 h 35 min
Bit rate mode                            : Constant
Bit rate                                 : 192 kb/s
Channel(s)                               : 2 channels
Channel positions                        : Front: L R
Sampling rate                            : 48.0 kHz
Frame rate                               : 31.250 FPS (1536 spf)
Bit depth                                : 16 bits
Compression mode                         : Lossy
Stream size                              : 132 MiB (2%)
Title                                    : Cine+
Language                                 : Ukrainian
Default                                  : Yes
Forced                                   : Yes

Audio #2
ID                                       : 3
Format                                   : AC-3
Format/Info                              : Audio Coding 3
Mode extension                           : CM (complete main)
Format settings, Endianness              : Big
Codec ID                                 : A_AC3
Duration                                 : 1 h 35 min
Bit rate mode                            : Constant
Bit rate                                 : 192 kb/s
Channel(s)                               : 2 channels
Channel positions                        : Front: L R
Sampling rate                            : 48.0 kHz
Frame rate                               : 31.250 FPS (1536 spf)
Bit depth                                : 16 bits
Compression mode                         : Lossy
Stream size                              : 132 MiB (2%)
Title                                    : ТРК Україна
Language                                 : Ukrainian
Default                                  : No
Forced                                   : No

Audio #3
ID                                       : 4
Format                                   : AC-3
Format/Info                              : Audio Coding 3
Mode extension                           : CM (complete main)
Format settings, Endianness              : Big
Codec ID                                 : A_AC3
Duration                                 : 1 h 35 min
Bit rate mode                            : Constant
Bit rate                                 : 192 kb/s
Channel(s)                               : 2 channels
Channel positions                        : Front: L R
Sampling rate                            : 48.0 kHz
Frame rate                               : 31.250 FPS (1536 spf)
Bit depth                                : 16 bits
Compression mode                         : Lossy
Stream size                              : 132 MiB (2%)
Title                                    : Dub (Mic)
Language                                 : Ukrainian
Default                                  : No
Forced                                   : No

Text #1
ID                                       : 5
Format                                   : UTF-8
Codec ID                                 : S_TEXT/UTF8
Codec ID/Info                            : UTF-8 Plain Text
Duration                                 : 1 h 26 min
Bit rate                                 : 93 b/s
Count of elements                        : 1178
Stream size                              : 59.3 KiB (0%)
Title                                    : Ukrainian (full) | (Blu-ray CEE)
Language                                 : Ukrainian
Default                                  : No
Forced                                   : No

Text #2
ID                                       : 6
Format                                   : UTF-8
Codec ID                                 : S_TEXT/UTF8
Codec ID/Info                            : UTF-8 Plain Text
Duration                                 : 1 h 26 min
Bit rate                                 : 57 b/s
Count of elements                        : 1234
Stream size                              : 36.5 KiB (0%)
Title                                    : English (Full) | (Blu-ray)
Language                                 : English
Default                                  : No
Forced                                   : No

Text #3
ID                                       : 7
Format                                   : UTF-8
Codec ID                                 : S_TEXT/UTF8
Codec ID/Info                            : UTF-8 Plain Text
Duration                                 : 1 h 26 min
Bit rate                                 : 61 b/s
Count of elements                        : 1389
Stream size                              : 39.2 KiB (0%)
Title                                    : English (SDH) | (Blu-ray)
Language                                 : English
Default                                  : No
Forced                                   : No

Text #4
ID                                       : 8
Format                                   : UTF-8
Codec ID                                 : S_TEXT/UTF8
Codec ID/Info                            : UTF-8 Plain Text
Duration                                 : 1 h 26 min
Bit rate                                 : 72 b/s
Count of elements                        : 1389
Stream size                              : 46.2 KiB (0%)
Title                                    : English (SDH-COLORED) | (Blu-ray)
Language                                 : English
Default                                  : No
Forced                                   : No
Скріншоти




Джерело:
Запис з Cine Sando7 Синхронізація:Arsenfpu
Запис Mic та ТРК Україна : slavik_v_z Синхронізація: Gelios
Особиста оцінка: не дивився


 Трекер:    Зареєстрований   

Завантажити / скачати фільм українською



відео для новачків



 Зареєстрований:   2018-01-31 19:45
 Розмір:   7.42 GB 
 Оцінка фільму:   9.5/10 (Голосів: 13)
   
Інші релізи
   Примарний патруль / R.I.P.D. (2013) 2xUkr/Eng Arsenfpu  4 / 0   1.96 GB   2017-10-22 17:44 
   Примарний патруль / R.I.P.D. (2013) | Sub Ukr/Eng НТН  0 / 0   1.45 GB   2017-03-09 12:39 
   Примарний патруль / R.I.P.D. (2013) 720p 2xUkr/Eng | Sub Ukr/Eng tribus  4 / 0   5.84 GB   2017-01-03 13:42 
   Примарний патруль / R.I.P.D. (2013) Gelios  5 / 0   1.45 GB   2017-01-03 09:14 
   R.I.P.D. Примарний патруль / R.I.P.D. (2013) AVC Ukr(Mic)/Eng patriot2305  2 / 1   2.06 GB   2013-10-19 18:38 
   R.I.P.D. Примарний патруль / R.I.P.D. (2013) | Mic patriot2305  6 / 0   1.32 GB   2013-10-19 09:11 
Electroz 
Відео Гуртом - підтримка та поширення
Відео Гуртом - підтримка та поширення


З нами з: 18.09.14
Востаннє: 26.04.19
Повідомлень: 3279

2018-01-30 23:45  
Доріжка від України 5.1 https://toloka.to/t80517
Kozak133 
Частий відвідувач


З нами з: 07.12.15
Востаннє: 23.04.19
Повідомлень: 29

2018-01-31 19:31  
Всцятися не всратися, невже це сталося!
bot 
робот


З нами з: 30.09.07
Востаннє: 26.05.05
Повідомлень: 21245

2018-01-31 19:45  
Тему перенесено з Анонси релізів до форуму Фільми в HD


staf777

havryk 
VIP


З нами з: 29.06.10
Востаннє: 25.04.19
Повідомлень: 800

2018-01-31 20:09  
staf777 написано:
переклад: багатоголосий закадровий | Mic

Професійний дубльований

staf777 
Відео Гуртом - підтримка та поширення
Відео Гуртом - підтримка та поширення


З нами з: 16.11.16
Востаннє: 25.04.19
Повідомлень: 2286

2018-01-31 20:20  
Першу та другу доріжку брав ось тут https://toloka.to/t84794 виставив як там за замовчанням - (Доріжки не підписані)
Перша Cine+
Друга ТРК Україна - але звук краще у другої доріжки - мабуть переплутав першу та другу доріжку

Додано через 5 хвилин 55 секунд:

havryk написано:
Професійний дубльований

Дякую провтикав

Electroz 
Відео Гуртом - підтримка та поширення
Відео Гуртом - підтримка та поширення


З нами з: 18.09.14
Востаннє: 26.04.19
Повідомлень: 3279

2018-01-31 21:08  
Electroz написано:
Доріжка від України 5.1 https://toloka.to/t80517

staf777, Чому не взяв доріжку? Там нормальний почищений звук...

staf777 
Відео Гуртом - підтримка та поширення
Відео Гуртом - підтримка та поширення


З нами з: 16.11.16
Востаннє: 25.04.19
Повідомлень: 2286

2018-01-31 22:24  
Electroz написано:
staf777, Чому не взяв доріжку? Там нормальний почищений звук...

Ріп зробив раніше чим побачив Ваше повідомляння - переробляти полінувався може пізніше перероблю...

Oleksa9 
VIP


З нами з: 17.05.12
Востаннє: 25.04.19
Повідомлень: 342

2019-02-11 08:39  
cine+:
бачю, щьось, пощястило, щьо, чьорт, кращє, вічьних...
багатообіцяюче?
мінздрав??

Nymizmat 
Новенький


З нами з: 09.11.14
Востаннє: 25.04.19
Повідомлень: 22

2019-03-07 22:17  
Класний фільм. Не знаю як я його не побачив раніше.
Ваш часовий пояс: GMT + 2 Години

Нова тема   Відповісти