У всьому винен єнот / Wakefield (2016) 1080p Ukr/Eng | Sub Ukr/Eng

Нові коментарі

Нова тема   Відповісти
Автор Повідомлення
staf777 
Відео Гуртом - підтримка та поширення
Відео Гуртом - підтримка та поширення


З нами з: 16.11.16
Востаннє: 21.09.20
Повідомлень: 4022

2018-01-29 23:49  
У всьому винен єнот / Wakefield (2016) 1080p Ukr/Eng | Sub Ukr/Eng




Країна: США
Жанр: драма



Кінокомпанія: Mockingbird Pictures, Dominion Pictures
Режисер: Робін Свікорд
Актори: Браян Кренстон / Bryan Cranston, Дженніфер Ґарнер / Jennifer Garner, Беверлі Д’Анджело / Beverly D'Angelo, Йен Ентоні Дейл / Ian Anthony Dale, Джейсон О’Мара / Jason O'Mara, Еллері Спрейберрі / Ellery Sprayberry, Піппа Беннетт-Ворнер / Pippa Bennett-Warner, Вікторія Бруно / Victoria Bruno, Моніка Лоусон / Monica Lawson, Еліза Коулмен / Eliza Coleman та інші

Сюжет:
Говард Вейкфілд, процвітаючий юрист, вірний чоловік, турботливий батько двох дочок, одного разу круто змінив своє життя. Це сталося раптово, коли він підходив до рідного розкішного гніздечка в передмісті Нью-Йорка. Погнавшись за нахабним єнотом, що сидів у нього на шляху, Вейкфілд опинився на горищі покинутого гаража, звідки було видно вікна його вітальні. Накритий стіл, домочадці чекають батька. «А що буде, якщо я пропаду? Чи будуть плакати люблячі крихітки? Чи швидко дружина знайде мені заміну? Чи помруть з голоду без моїх доходів?» — подумав Говард і вирішив... залишитися жити на горищі.


Тривалість: 01:48:43
Якість: 1080p

Відео:
кодек:
розмір кадру: 1920x816
бітрейт: 8500 кб/с

Аудіо # 1:
мова: українська
кодек: 2.0
переклад: багатоголосий закадровий
бітрейт: 192 кб/с

Аудіо # 2:
мова: англійська
переклад: оригінал
кодек: 5.1
бітрейт: 640 кб/с

Субтитри # 1:
мова: українська
тип: програмні (м'які)
формат: *.srt

Субтитри # 2:
мова: англійська
тип: програмні (м'які)
формат: *.srt

Info
Код:
General
Unique ID                                : 226254000731732660487754998495583758547 (0xAA36EF7D3BD7CB3B9134C275E6F568D3)
Complete name                            : P:\HD українською » Фільми в HD\Драма\Wakefield (2016) 1080p [Ukr][Eng] [Sub Ukr Eng][Hurtom].
Format                                   :
Format version                           : Version 4 / Version 2
File size                                : 7.08 GiB
Duration                                 : 1 h 48 min
Overall bit rate                         : 9 319 kb/s
Movie name                               : Wakefield (2016) 1080p [Ukr][Eng] [Sub Ukr Eng][Hurtom]
Encoded date                             : UTC 2018-01-29 21:17:05
Writing application                      : v9.8.0 ('Kuglblids') 64bit
Writing library                          : libebml v1.3.4 + v1.4.5

Video
ID                                       : 1
Format                                   : AVC
Format/Info                              : Advanced Video Codec
Format profile                           : [email protected]
Format settings, CABAC                   : Yes
Format settings, ReFrames                : 5 frames
Codec ID                                 : V_MPEG4/ISO/AVC
Duration                                 : 1 h 48 min
Bit rate                                 : 8 500 kb/s
Width                                    : 1 920 pixels
Height                                   : 816 pixels
Display aspect ratio                     : 2.35:1
Frame rate mode                          : Constant
Frame rate                               : 23.976 (24000/1001) FPS
Color space                              : YUV
Chroma subsampling                       : 4:2:0
Bit depth                                : 8 bits
Scan type                                : Progressive
Bits/(Pixel*Frame)                       : 0.226
Stream size                              : 6.44 GiB (91%)
Title                                    : Wakefield (2016)
Writing library                          : core 148 r2705 3f5ed56
Encoding settings                        : cabac=1 / ref=5 / deblock=1:-3:-3 / analyse=0x3:0x133 / me=umh / subme=10 / psy=1 / psy_rd=1.05:0.05 / mixed_ref=1 / me_range=48 / chroma_me=1 / trellis=2 / 8x8dct=1 / cqm=0 / deadzone=21,11 / fast_pskip=0 / chroma_qp_offset=-3 / threads=22 / lookahead_threads=4 / sliced_threads=0 / nr=0 / decimate=0 / interlaced=0 / bluray_compat=0 / constrained_intra=0 / bframes=10 / b_pyramid=2 / b_adapt=2 / b_bias=0 / direct=3 / weightb=1 / open_gop=0 / weightp=2 / keyint=240 / keyint_min=23 / scenecut=40 / intra_refresh=0 / rc_lookahead=50 / rc=2pass / mbtree=0 / bitrate=8500 / ratetol=1.0 / qcomp=0.60 / qpmin=0 / qpmax=69 / qpstep=4 / cplxblur=20.0 / qblur=0.5 / vbv_maxrate=50000 / vbv_bufsize=62500 / nal_hrd=none / filler=0 / ip_ratio=1.40 / pb_ratio=1.30 / aq=3:0.80
Language                                 : English
Default                                  : Yes
Forced                                   : No

Audio #1
ID                                       : 2
Format                                   : AC-3
Format/Info                              : Audio Coding 3
Mode extension                           : CM (complete main)
Format settings, Endianness              : Big
Codec ID                                 : A_AC3
Duration                                 : 1 h 48 min
Bit rate mode                            : Constant
Bit rate                                 : 192 kb/s
Channel(s)                               : 2 channels
Channel positions                        : Front: L R
Sampling rate                            : 48.0 kHz
Frame rate                               : 31.250 FPS (1536 spf)
Bit depth                                : 16 bits
Compression mode                         : Lossy
Stream size                              : 149 MiB (2%)
Title                                    : [UA-MVO]
Language                                 : Ukrainian
Default                                  : Yes
Forced                                   : Yes

Audio #2
ID                                       : 3
Format                                   : AC-3
Format/Info                              : Audio Coding 3
Mode extension                           : CM (complete main)
Format settings, Endianness              : Big
Codec ID                                 : A_AC3
Duration                                 : 1 h 48 min
Bit rate mode                            : Constant
Bit rate                                 : 640 kb/s
Channel(s)                               : 6 channels
Channel positions                        : Front: L C R, Side: L R, LFE
Sampling rate                            : 48.0 kHz
Frame rate                               : 31.250 FPS (1536 spf)
Bit depth                                : 16 bits
Compression mode                         : Lossy
Stream size                              : 498 MiB (7%)
Title                                    : Original
Language                                 : English
Default                                  : No
Forced                                   : No

Text #1
ID                                       : 4
Format                                   : UTF-8
Codec ID                                 : S_TEXT/UTF8
Codec ID/Info                            : UTF-8 Plain Text
Duration                                 : 1 h 43 min
Bit rate                                 : 56 b/s
Count of elements                        : 1068
Stream size                              : 42.9 KiB (0%)
Language                                 : Ukrainian
Default                                  : No
Forced                                   : No

Text #2
ID                                       : 5
Format                                   : UTF-8
Codec ID                                 : S_TEXT/UTF8
Codec ID/Info                            : UTF-8 Plain Text
Duration                                 : 1 h 40 min
Bit rate                                 : 41 b/s
Count of elements                        : 811
Stream size                              : 30.3 KiB (0%)
Title                                    : Full
Language                                 : English
Default                                  : No
Forced                                   : No
Скріншоти





Підтримати купівлю інших фільмів можна тут.


Подяка панам:
- AngryBirdsUA за витягування доріжки;
- Hanway за синхронізацію доріжки;
- ivan vyrvyvuho за синхронізацію субтитрів.



Джерело: &
Особиста оцінка: 0 - не дивився


 Трекер:    Зареєстрований   

Завантажити / скачати фільм українською



відео для новачків



 Зареєстрований:   2018-01-30 00:31
 Розмір:   7.08 GB 
 Оцінка фільму:   8.7/10 (Голосів: 21)
   
Інші релізи
andriy_z 
Новенький


З нами з: 20.07.08
Востаннє: 21.09.20
Повідомлень: 12

2018-02-26 23:54  
Непогане кіно на 1 вечір, дає змогу замислитись над балансом між роботою і життям.
boroznaya 
Попереджень: 1
Попереджень: 1 


З нами з: 02.11.12
Востаннє: 21.09.20
Повідомлень: 2938

2018-03-04 11:10  
staf777
Додайте будь ласка список акторів, що знялись у фільмі!

Volodymyr82 
Попереджень: 1
Попереджень: 1 


З нами з: 30.09.15
Востаннє: 11.09.20
Повідомлень: 29

2020-08-02 14:34  
Станьте на роздачу. Дякую

Додано через 35 хвилин 31 секунду:

Дайте докачати, а то був один сід і той пропав. Не йдіть з роздачі

igor911 
Модератор відео


З нами з: 18.01.08
Востаннє: 21.09.20
Повідомлень: 14999

2020-08-02 20:52  
Volodymyr82 написано:
Станьте на роздачу...Дайте докачати...Не йдіть з роздачі

торент-профіль Volodymyr82 написано:
Рейтинг: 0.07
Активні торренти:
Роздає: немає
Завантажує: 1

Для початку було б непогано роздавати попередні релізи самому.

Ваш часовий пояс: GMT + 2 Години

Нова тема   Відповісти