Жінка в червоному / The Woman in Red (1984) 2xUkr

Нові коментарі

Нова тема   Відповісти
Автор Повідомлення
igor911 
Відео Гуртом
Відео Гуртом


З нами з: 18.01.08
Востаннє: 20.04.19
Повідомлень: 12310

2018-01-28 20:31  
Жінка в червоному / The Woman in Red (1984) 2xUkr

Альтернативний та українізовані постери:






Жанр: мелодрама, комедія
Країна: США

Оскара та Золотий глобус за найкращу пісню - "I Just Called to Say I Love You"
Прослухати "I Just Called to Say I Love You" у виконанні Стіві Вандера:




Кінокомпанія: Orion Pictures
Режисер: Джин Вайлдер / Gene Wilder
Актори: Джин Вайлдер / Gene Wilder, Чарльз Гродін / Charles Grodin, Джозеф Болонья / Joseph Bologna, Джудіт Айві / Judith Ivey, Майкл Хадлстон / Michael Huddleston, Келлі ЛеБрок / Kelly LeBrock, Джільда Реднер / Gilda Radner, Кайл Ті Геффнер / Kyle T. Heffner та інші

Сюжет:
Задоволений життям Тедді Пірс працює на хорошій роботі, у нього гарна дружина Діді та двоє дітей. Одного разу він побачив жінку в червоній сукні, вона в ній виглядала неперевершено. Чоловік, який переживає кризу середнього віку, закохується в неї з першого погляду. Одержимий бажанням залізти до неї в ліжко Теодор дарує красуні безліч подарунків, квітів. Врешті-решт Шарлотт запрошує його...
Альтернативний опис:
Одного разу Тедді опиняється в одних трусах на карнизі за вікном красуневої спальні під прицілом камер телебачення. Як він опинився в цій безґлуздій ситуації? Усьому винувата карколомна красуня Шарлотта, жінка в червоній сукні. У Тедді Пірса, є все що потрібно для щасливого життя - мила дружина, діти, гарна робота.

Усе б добре, але він відчайдушно нудьгує й переживає кризу середнього віку. Побачивши запаморочливу красуню в червоній сукні, що розвивається, він шалено закохується в неї і тепер єдина мета його життя - залізти в її ліжко. Увесь свій вільний час він таємно переслідує предмет своєї пристрасті, намагаючись в будь-що здійснити задумане.

Його друзі вдаються до всіляких дій, аби прикрити його. Від втілення заповітного бажання відділяє лише одна мить, проте...
Оригінальний трейлер:


Рейтинг MPAA: PG-13 - дітям до 13 років перегляд не бажаний
Вікова категорія: 12+

Тривалість: 01:26:37
Якість: [Hurtom, джерело - Remux]
Відео:
кодек:
розмір кадру: 704 х 384
бітрейт: 1997 кб/с

Аудіо # 1:
мова: українська
переклад: двоголосий закадровий
кодек: 2.0 [стерео]
бітрейт: 192 кб/с

Аудіо # 2:
мова: українська
переклад: двоголосий закадровий
чоловічі ролі озвучив: Юрій Ребрик
кодек: 2.0
бітрейт: 192 кб/с
Info
Код:
General
Complete name               : The Woman in Red (1984) [2xUkr] [Hurtom].avi
Format                      : AVI
Format/Info                 : Audio Video Interleave
File size                   : 1.45 GiB
Duration                    : 1 h 26 min
Overall bit rate            : 2 395 kb/s
Movie name                  : Жінка в червоному / The Woman in Red (1984) [2xUkr] [Hurtom]
Genre                       : мелодрама, комедія
Writing application         : VirtualDubModUkr 1.5.10.2 (build 2542/release)
Writing library             : VirtualDubMod build 2542/release
Comment                     : https://toloka.to/t86925

Video
ID                          : 0
Format                      : MPEG-4 Visual
Format profile              : Advanced [email protected]
Format settings             : BVOP1
Format settings, BVOP       : 1
Format settings, QPel       : No
Format settings, GMC        : No warppoints
Format settings, Matrix     : Default (MPEG)
Codec ID                    :
Codec ID/Hint               :
Duration                    : 1 h 26 min
Bit rate                    : 1 997 kb/s
Width                       : 704 pixels
Height                      : 384 pixels
Display aspect ratio        : 1.85:1
Frame rate                  : 23.976 (24000/1001) FPS
Color space                 : YUV
Chroma subsampling          : 4:2:0
Bit depth                   : 8 bits
Scan type                   : Progressive
Compression mode            : Lossy
Bits/(Pixel*Frame)          : 0.308
Stream size                 : 1.21 GiB (83%)
Writing library             : 67

Audio #1
ID                          : 1
Format                      : AC-3
Format/Info                 : Audio Coding 3
Codec ID                    : 2000
Duration                    : 1 h 26 min
Bit rate mode               : Constant
Bit rate                    : 192 kb/s
Channel(s)                  : 2 channels
Channel positions           : Front: L R
Sampling rate               : 48.0 kHz
Frame rate                  : 31.250 FPS (1536 SPF)
Bit depth                   : 16 bits
Compression mode            : Lossy
Stream size                 : 119 MiB (8%)
Alignment                   : Split accross interleaves
Interleave, duration        : 42  ms (1.00 video frame)
Interleave, preload duratio : 500  ms
Title                       : UKR DVO [AMC], stereo
Service kind                : Complete Main

Audio #2
ID                          : 2
Format                      : AC-3
Format/Info                 : Audio Coding 3
Codec ID                    : 2000
Duration                    : 1 h 26 min
Bit rate mode               : Constant
Bit rate                    : 192 kb/s
Channel(s)                  : 2 channels
Channel positions           : Front: L R
Sampling rate               : 48.0 kHz
Frame rate                  : 31.250 FPS (1536 SPF)
Bit depth                   : 16 bits
Compression mode            : Lossy
Stream size                 : 119 MiB (8%)
Alignment                   : Split accross interleaves
Interleave, duration        : 42  ms (1.00 video frame)
Interleave, preload duratio : 500  ms
Title                       : UKR DVO [1+1]
Service kind                : Complete Main
Ще трохи скріншотів:
Джерело:
Українські доріжки: 1+1 - dvorsky запис, rooster синхронізація під , igor911 синхронізація під блурей;
AMC - Sando7 запис з ТБ, igor911 синхронізація.
Українізація постерів: somnambula, Ermolenko


Срібний реліз (на рейтинг впливає 50% завантаженого)
 Трекер:    Зареєстрований   

Завантажити / скачати фільм українською



відео для новачків



 Зареєстрований:   2018-01-28 23:13
 Розмір:   1.45 GB 
 Оцінка фільму:   9.7/10 (Голосів: 9)
   
Lil`Antoni 
VIP


З нами з: 25.02.12
Востаннє: 19.04.19
Повідомлень: 706

2018-01-28 20:57  
А буде оновлення релізу 720p?
igor911 
Відео Гуртом
Відео Гуртом


З нами з: 18.01.08
Востаннє: 20.04.19
Повідомлень: 12310

2018-01-28 23:16  
Lil`Antoni, буде новий реліз, 720p.
robotron005 
Відео Гуртом - фільмокрай
Відео Гуртом - фільмокрай


З нами з: 29.01.09
Востаннє: 20.04.19
Повідомлень: 3199

2018-01-31 18:55  
додайте будь ласка кудись оригінальну доріжку.
igor911 
Відео Гуртом
Відео Гуртом


З нами з: 18.01.08
Востаннє: 20.04.19
Повідомлень: 12310

2018-01-31 19:27  
robotron005 написано:
кудись оригінальну доріжку.

https://fex.net/#!576449381546

Lil`Antoni 
VIP


З нами з: 25.02.12
Востаннє: 19.04.19
Повідомлень: 706

2018-01-31 20:49  
Anonymous написано:
Lil`Antoni, буде новий реліз, 720p.

Чудово, а коли орінтовно чекати ?

igor911 
Відео Гуртом
Відео Гуртом


З нами з: 18.01.08
Востаннє: 20.04.19
Повідомлень: 12310

2018-02-01 02:37  
Lil`Antoni написано:
Чудово, а коли орінтовно чекати ?

https://toloka.to/t87004

Lil`Antoni 
VIP


З нами з: 25.02.12
Востаннє: 19.04.19
Повідомлень: 706

2018-02-01 12:29  
Anonymous
Дякую

Ваш часовий пояс: GMT + 2 Години

Нова тема   Відповісти