Доктор Хаус (Сезон 5) / House M.D. (Season 5) (2008-2009) 1080p Ukr/Eng | Sub Eng

Нові коментарі

Нова тема   Відповісти
Автор Повідомлення
Anonymous 







2018-01-28 02:43  

720p: S01 | S02 | S03 | S04 | S05 | S06 | S07 | S08 + Лебедина пісня / Swan song



Доктор Хаус (Сезон 5) / House M.D. (Season 5) (2008-2009) 1080p Ukr/Eng | Sub Eng


Доктор Хаус (Сезон 5) / House M.D. (Season 5) (2008-2009) 1080p Ukr/Eng | Sub Eng


Альтернативні постери



Жанр: драма, детектив, комедія
Країна: США



Кінокомпанія: Heel & Toe Films, Shore Z Productions, Bad Hat Harry Productions, Moratim Productions, Universal Media Studios (UMS)
Режисер: Браян Сінгер
Автор ідеї: Девід Шор
Актори: Г'ю Лорі, Роберт Шон Леонард, Омар Еппс, Джессі Спенсер, Дженніфер Моррісон та інші

Сюжет:
Доктор Хаус — блискучий фахівець у галузі захворювань нирок (нефрологія) і інфекційних хвороб, але через деякі особливості його характеру його не можна назвати улюбленцем пацієнтів і колег — він замкнутий, різкий і цинічний, схильний до мізантропії й бунтарства. Він не обтяжує себе дотриманням правил гарного тону й часом здається, що він повністю позбавлений почуття жалю (що, однак, невірно). Найкраще говорить про життєву позицію Хауса цитата доктора Формана: «Він не порушує правила, він їх ігнорує»; а також його улюблене твердження — «Усі брешуть». Як не дивно, саме цей підхід нерідко допомагає йому розібратися у найскладніших і неймовірних випадках, а значить урятувати життя ще одному пацієнтові.


Тривалість: 1 серія: ~44 хв. (цілком серій: 24)
Перелік серій

House M.D. Season 5, Episode 01. Dying Changes Everything | «Смерть змінює все»
House M.D. Season 5, Episode 02. Not Cancer | «Не рак»
House M.D. Season 5, Episode 03. Adverse Events | «Ускладнення»
House M.D. Season 5, Episode 04. Birthmarks | «Родові травми»
House M.D. Season 5, Episode 05. Lucky Thirteen | «Везуча Тринадцята»
House M.D. Season 5, Episode 06. Joy | «Джой»
House M.D. Season 5, Episode 07. The Itch | «Свербіння»
House M.D. Season 5, Episode 08. Emancipation | «Без опіки»
House M.D. Season 5, Episode 09. Last Resort | «Крайній крок»
House M.D. Season 5, Episode 10. Let Them Eat Cake | «Нехай їдять торт»
House M.D. Season 5, Episode 11. Joy to the World | «Радість світу»
House M.D. Season 5, Episode 12. Painless | «Без болю»
House M.D. Season 5, Episode 13. Big Baby | «Велика дитина»
House M.D. Season 5, Episode 14. The Greater Good | «Вище благо»
House M.D. Season 5, Episode 15. Unfaithful | «Невіруючий»
House M.D. Season 5, Episode 16. The Softer Side | «Найкраща половина»
House M.D. Season 5, Episode 17. The Social Contract | «Соціальний контракт»
House M.D. Season 5, Episode 18. Here Kitty | «Сюди, кицько!»
House M.D. Season 5, Episode 19. Locked In | «Замкнутий»
House M.D. Season 5, Episode 20. Simple Explanation | «Просте пояснення»
House M.D. Season 5, Episode 21. Saviors | «Рятівники»
House M.D. Season 5, Episode 22. House Divided | «Роздвоєння»
House M.D. Season 5, Episode 23. Under My Skin | «Під моєю шкірою»
House M.D. Season 5, Episode 24. Both Sides Now | «Обидві половинки разом»
Якість: 1080p
Відео:
кодек:
розмір кадру: 1920 х 1080
бітрейт: 10 Мб/с

Аудіо # 1: /
мова: українська
переклад: багатоголосий закадровий
кодек: 2.0
бітрейт: 192 кб/с
Доріжки окремо: (завантажити)

Аудіо # 2:
мова: англійська
переклад: оригінал
кодек: 5.1
бітрейт: 768 кб/с

Субтитри # 1: (SDH/Full)
мова: англійська
тип: програмні (м'які)
формат: *.srt
Info

General
Unique ID : 132686593667022243424793805561844519628 (0x63D2822640F624549BA1861A03F8D2CC)
Format :
Format version : Version 4 / Version 2
File size : 3.33 GiB
Duration : 43 min 29 s
Overall bit rate : 11.0 Mb/s
Encoded date : UTC 2018-03-03 12:54:26
Writing application : v21.0.0 ('Tardigrades Will Inherit The Earth') 64-bit
Writing library : libebml v1.3.5 + v1.4.8
Cover : Yes
Attachments : Cover.jpg

Video
ID : 1
Format : AVC
Format/Info : Advanced Video Codec
Format profile : [email protected]
Format settings : CABAC / 4 Ref Frames
Format settings, CABAC : Yes
Format settings, ReFrames : 4 frames
Codec ID : V_MPEG4/ISO/AVC
Duration : 43 min 29 s
Bit rate : 10.0 Mb/s
Width : 1 920 pixels
Height : 1 080 pixels
Display aspect ratio : 16:9
Frame rate mode : Constant
Frame rate : 23.976 (24000/1001) FPS
Color space : YUV
Chroma subsampling : 4:2:0
Bit depth : 8 bits
Scan type : Progressive
Bits/(Pixel*Frame) : 0.201
Stream size : 3.04 GiB (91%)
Title : House M.D. S05.E01 (2008) 1080p [Ukr.Eng Sub.Eng] [Hurtom]
Writing library : core 142 r2409 d6b4e63
Encoding settings : cabac=1 / ref=4 / deblock=1:0:0 / analyse=0x3:0x113 / me=umh / subme=7 / psy=1 / psy_rd=1.00:0.00 / mixed_ref=1 / me_range=16 / chroma_me=1 / trellis=1 / 8x8dct=1 / cqm=0 / deadzone=21,11 / fast_pskip=1 / chroma_qp_offset=-2 / threads=12 / lookahead_threads=2 / sliced_threads=0 / nr=0 / decimate=1 / interlaced=0 / bluray_compat=0 / constrained_intra=0 / bframes=3 / b_pyramid=2 / b_adapt=1 / b_bias=0 / direct=1 / weightb=1 / open_gop=0 / weightp=2 / keyint=240 / keyint_min=23 / scenecut=40 / intra_refresh=0 / rc_lookahead=40 / rc=2pass / mbtree=1 / bitrate=10012 / ratetol=1.0 / qcomp=0.60 / qpmin=10 / qpmax=51 / qpstep=4 / cplxblur=20.0 / qblur=0.5 / vbv_maxrate=62500 / vbv_bufsize=78125 / nal_hrd=none / filler=0 / ip_ratio=1.40 / aq=1:1.00
Language : English
Default : Yes
Forced : No

Audio #1
ID : 2
Format : AC-3
Format/Info : Audio Coding 3
Codec ID : A_AC3
Duration : 43 min 29 s
Bit rate mode : Constant
Bit rate : 192 kb/s
Channel(s) : 2 channels
Channel positions : Front: L R
Sampling rate : 48.0 kHz
Frame rate : 31.250 FPS (1536 SPF)
Bit depth : 16 bits
Compression mode : Lossy
Stream size : 59.7 MiB (2%)
Title : MVO | STB/K1 | 2.0 | 192 kbps
Language : Ukrainian
Service kind : Complete Main
Default : Yes
Forced : No

Audio #2
ID : 3
Format :
Format/Info : Digital Theater Systems
Codec ID : A_DTS
Duration : 43 min 29 s
Bit rate mode : Constant
Bit rate : 768 kb/s
Channel(s) : 6 channels
Channel positions : Front: L C R, Side: L R, LFE
Sampling rate : 48.0 kHz
Frame rate : 93.750 FPS (512 SPF)
Bit depth : 24 bits
Compression mode : Lossy
Stream size : 239 MiB (7%)
Title : Original
Language : English
Default : No
Forced : No

Text
ID : 4
Format : UTF-8
Codec ID : S_TEXT/UTF8
Codec ID/Info : UTF-8 Plain Text
Duration : 42 min 13 s
Bit rate : 99 b/s
Count of elements : 788
Stream size : 30.7 KiB (0%)
Title : Original | SDH
Language : English
Default : No
Forced : No

Menu
00:00:00.000 : en:00:00:00.000
00:02:08.837 : en:00:02:08.837
00:10:11.736 : en:00:10:11.736
00:18:57.928 : en:00:18:57.928
00:27:00.285 : en:00:27:00.285
00:42:47.690 : en:00:42:47.690
Скріншоти












































Джерело:
Подяки:
slavik_v_z за запис звуку з К1
krigg070 за синхронізацію під та опис.
-_-B_E_N_D_E_R-_- за постери.
Особиста оцінка: 10 - без зайвих вагань рекомендую всім!

Не забуваємо дякувати!


Золотий реліз (завантажене не впливає на рейтинг)
 Трекер:    Зареєстрований   

Завантажити / скачати серіал українською



відео для новачків



 Зареєстрований:   2018-03-03 23:06
 Розмір:   80.01 GB 
 Оцінка серіалу:   10/10 (Голосів: 25)
   
MichaelZarashchak 
Новенький


З нами з: 07.09.14
Востаннє: 29.11.20
Повідомлень: 3

2018-01-30 18:53  
Оооооо супер супер)))Нарешті.Жду.
bot 
робот


З нами з: 30.09.07
Востаннє: 26.05.05
Повідомлень: 26482

2018-03-03 23:05  
Тему перенесено з Анонси релізів до форуму Серіали в HD


Pegass

Ваш часовий пояс: GMT + 2 Години

Нова тема   Відповісти