Життя і мета собаки / A Dog's Purpose (2017) Remux 1080p Ukr/Eng | Sub Eng

Нові коментарі

Нова тема   Відповісти
Автор Повідомлення
staf777 
Відео Гуртом - підтримка та поширення
Відео Гуртом - підтримка та поширення


З нами з: 16.11.16
Востаннє: 28.09.20
Повідомлень: 4058

2018-01-27 15:56  
Життя і мета собаки / A Dog's Purpose (2017) Remux 1080p Ukr/Eng | Sub Eng

Життя і мета собаки / A Dog's Purpose (2017) Remux 1080p Ukr/Eng | Sub Eng


Жанр: драма, комедія, сімейний
Країна: США



Кінокомпанія: Universal Pictures, DreamWorks SKG
Режисер: Лассе Галлстрьом
Актори: Джош Ґед, Лоґан Міллер, Брітт Робертсон, Денніс Квейд, Джульєт Райленс, Джон Ортіц, Кей Джей Апа, Люк Кірбі, Ґабріель Роз, Ніколь ЛаПлаца

Сюжет:
Історія розповідає нам про декілька життів одного собаки. Спочатку він був чоловічої статі, і його звали Бейлі. Він прожив щасливе життя з хлопчиком Ітаном, після чого пес переродився в іншому тілі – дівчинки Бадді. І так кілька разів. Для кожного господаря він ставав кращим другом і робив все можливе для їх щастя. Отримавши нове життя, пес розуміє, що його господарем знову є Ітан. Фільм не тільки про те, як живе собака, а й про прихильність до людей, про справжню дружбу і про те, яку роль відіграє пес в житті людини.


Тривалість: 01:40:02
Якість: Remux 1080p [Взято з європейського Блу-рея]
Відео:
кодек:
розмір кадру: 1920x1080
бітрейт: 32,2 Mб/с

Аудіо # 1:
мова: українська
переклад: професійний дубльований | студія Tretyakoff production
кодек: 2.0
бітрейт: 192 кб/с

Аудіо # 2:
мова: англійська
переклад: оригінал
кодек: -HD MA 5.1
бітрейт: 3686 кб/с

Субтитри:
мова: англійська
тип: програмні (м'які)
формат: *.srt
Info
General
Unique ID : 215355139047036301010789281012607036177 (0xA203E41EEC19EFA29E59EBA9786F2B11)
Complete name : P:\Майбутні релізи\A Dog's Purpose (2017) Remux 1080p [Ukr][Eng][Sub Eng][Hurtom].
Format :
Format version : Version 4 / Version 2
File size : 25.2 GiB
Duration : 1 h 40 min
Overall bit rate mode : Variable
Overall bit rate : 36.0 Mb/s
Movie name : A Dog's Purpose (2017) Remux 1080p [Ukr][Eng][Sub Eng][Hurtom]
Encoded date : UTC 2018-01-27 10:44:47
Writing application : v9.8.0 ('Kuglblids') 64bit
Writing library : libebml v1.3.4 + v1.4.5

Video
ID : 1
Format : AVC
Format/Info : Advanced Video Codec
Format profile : [email protected]
Format settings, CABAC : Yes
Format settings, ReFrames : 4 frames
Codec ID : V_MPEG4/ISO/AVC
Duration : 1 h 40 min
Bit rate mode : Variable
Bit rate : 32.2 Mb/s
Maximum bit rate : 35.0 Mb/s
Width : 1 920 pixels
Height : 1 080 pixels
Display aspect ratio : 16:9
Frame rate mode : Constant
Frame rate : 23.976 (24000/1001) FPS
Color space : YUV
Chroma subsampling : 4:2:0
Bit depth : 8 bits
Scan type : Progressive
Bits/(Pixel*Frame) : 0.647
Stream size : 22.5 GiB (89%)
Title : A Dog's Purpose (2017)
Language : English
Default : Yes
Forced : No

Audio #1
ID : 2
Format : AC-3
Format/Info : Audio Coding 3
Mode extension : CM (complete main)
Format settings, Endianness : Big
Codec ID : A_AC3
Duration : 1 h 40 min
Bit rate mode : Constant
Bit rate : 192 kb/s
Channel(s) : 2 channels
Channel positions : Front: L R
Sampling rate : 48.0 kHz
Frame rate : 31.250 FPS (1536 spf)
Bit depth : 16 bits
Compression mode : Lossy
Stream size : 137 MiB (1%)
Title : [UA-DUB]
Language : Ukrainian
Default : Yes
Forced : Yes

Audio #2
ID : 3
Format :
Format/Info : Digital Theater Systems
Format profile : MA / Core
Mode : 16
Format settings, Endianness : Big
Codec ID : A_DTS
Duration : 1 h 40 min
Bit rate mode : Variable / Constant
Bit rate : 3 686 kb/s / 1 509 kb/s
Channel(s) : 6 channels
Channel positions : Front: L C R, Side: L R, LFE
Sampling rate : 48.0 kHz
Frame rate : 93.750 FPS (512 spf)
Bit depth : 24 bits
Compression mode : Lossless / Lossy
Stream size : 2.58 GiB (10%)
Language : English
Default : No
Forced : No

Text
ID : 4
Format : UTF-8
Codec ID : S_TEXT/UTF8
Codec ID/Info : UTF-8 Plain Text
Duration : 1 h 38 min
Bit rate : 76 b/s
Count of elements : 2129
Stream size : 55.6 KiB (0%)
Language : English
Default : No
Forced : No
Скріншоти



Джерело: &
Особиста оцінка: 10 - без зайвих вагань рекомендую всім!


Золотий реліз (завантажене не впливає на рейтинг)
 Трекер:    Зареєстрований   

Завантажити / скачати фільм українською



відео для новачків



 Зареєстрований:   2018-01-27 15:56
 Розмір:   25.18 GB 
 Оцінка фільму:   9.3/10 (Голосів: 23)
   
Інші релізи
zoriana.ukrainian.fan 
Новенький


З нами з: 18.04.18
Востаннє: 03.09.20
Повідомлень: 2

2018-04-18 09:44  
Дуже класний фільм! Колись дивилась в кіно. Реально, викликає сльози. Шкода песика Cry (1)
MasterYura 
Відео Гуртом - фільмокрай
Відео Гуртом - фільмокрай


З нами з: 21.11.09
Востаннє: 28.09.20
Повідомлень: 1106

2019-09-29 23:57  
міні інфо для роздачі на потім
інфо друга частина (інша назва) Подорож хорошого пса / A Dog's Journey

Ваш часовий пояс: GMT + 2 Години

Нова тема   Відповісти