Суддя Дредд / Dredd (2012) UHD Remux 2160p 4K HDR H.265 Ukr/Eng | Sub Eng

Нові коментарі

Нова тема   Відповісти
Останній раз роздавалося Vladuk88 (2019-05-24)
Автор Повідомлення
Vladuk88 
Свій


З нами з: 14.10.09
Востаннє: 25.05.19
Повідомлень: 67

2018-01-26 21:43  
Суддя Дредд / Dredd (2012) UHD Remux 2160p 4K HDR H.265 Ukr/Eng | Sub Eng


Суддя Дредд / Dredd (2012) UHD Remux 2160p 4K HDR H.265 Ukr/Eng | Sub Eng
Український постер



Жанр: кримінальний, фантастика, трилер
Країна: Велика Британія, США, Індія



Кінокомпанія: DNA Films, IM Global, Reliance Entertainment
Режисер: Піт Трейвіс
Актори: Карл Урбан, Олівія Тірлбі, Ліна Гіді, Вуд Харріс, Рейчел Вуд

Сюжет:
У жорстокому, футуристичному місті за порядок відповідає Міністерство Юстиції, працівники якого, Судді, мають повноваження судді, присяжних та ката. Знаменитий Суддя Дредд разом із стажером потрапляє в лігво банди наркоторговців, які розповсюджують новий наркотик, що змінює реальність, Лета.


Тривалість: 01:35:51
Якість: 4K UltraHD Remux 2160p
Відео:
кодек: H.265 (HEVC)
розмір кадру: 3840x2160 - апскейл з 2K
бітрейт: 70,6 Мб/с
бітова глибина: 10 біт
кольоровий простір: BT.2020 (HDR)

Аудіо # 1:
мова: українська
переклад: багатоголосий закадровий ОМІКРОН
кодек: -HD MA 7.1
бітрейт: 5248 кб/с

Аудіо # 2:
мова: англійська
переклад: оригінал
кодек: TrueHD+Atmos 7.1
бітрейт: 4633 кб/с

Субтитри: # 1-2
мова: англійська (повні, SDH)
тип: програмні (м'які)
формат: UTF-8
Info
Complete name : D:\Films\Dredd.2012.2160p.BluRay.REMUX.HEVC.HDR.-HD.
Format :
Format version : Version 4 / Version 2
File size : 53.9 GiB
Duration : 1 h 35 min
Overall bit rate mode : Variable
Overall bit rate : 80.5 Mb/s
Movie name : Dredd.2012.2160p.BluRay.REMUX.HEVC.HDR.-HD.MA.TrueHD.7.1.Atmos.IVA(3xRUS.UKR.ENG)
Encoded date : UTC 2018-01-21 16:05:34
Writing application : v15.0.0 ('Duel with the Devil') 64-bit
Writing library : libebml v1.3.5 + v1.4.5
Cover : Yes
Attachments : cover.jpg

Video
ID : 1
Format : HEVC
Format/Info : High Efficiency Video Coding
Format profile : Main [email protected]@High
Codec ID : V_MPEGH/ISO/HEVC
Duration : 1 h 35 min
Bit rate : 70.6 Mb/s
Width : 3 840 pixels
Height : 2 160 pixels
Display aspect ratio : 16:9
Frame rate mode : Constant
Frame rate : 23.976 (24000/1001) FPS
Color space : YUV
Chroma subsampling : 4:2:0 (Type 2)
Bit depth : 10 bits
Bits/(Pixel*Frame) : 0.355
Stream size : 47.3 GiB (88%)
Title : Dredd.2012.2160p.BluRay.REMUX.HEVC.HDR
Writing library : ATEME Titan File 3.7.9 (4.7.9.0)
Default : Yes
Forced : No
Color range : Limited
Color primaries : BT.2020
Transfer characteristics : SMPTE ST 2084
Matrix coefficients : BT.2020 non-constant
Mastering display color pri : R: x=0.680000 y=0.320000, G: x=0.265000 y=0.690000, B: x=0.150000 y=0.060000, White point: x=0.312700 y=0.329000
Mastering display luminance : min: 0.0000 cd/m2, max: 1000.0000 cd/m2
Maximum Content Light Level : 1000 cd/m2
Maximum Frame-Average Light : 1000 cd/m2

Audio #1
ID : 2
Format :
Format/Info : Digital Theater Systems
Format profile : MA / Core
Mode : 16
Format settings, Endianness : Big
Codec ID : A_DTS
Duration : 1 h 35 min
Bit rate mode : Variable / Constant
Bit rate : 5 248 kb/s / 1 509 kb/s
Channel(s) : 8 channels / 6 channels
Channel positions : Front: L C R, Side: L R, Back: L R, LFE / Front: L C R, Side: L R, LFE
Sampling rate : 48.0 kHz
Frame rate : 93.750 FPS (512 spf)
Bit depth : 24 bits
Compression mode : Lossless / Lossy
Stream size : 3.51 GiB (7%)
Title : «Омікрон»
Language : Ukrainian
Default : Yes
Forced : No

Audio #2
ID : 3
Format : TrueHD
Format profile : TrueHD+Atmos / TrueHD
Codec ID : A_TRUEHD
Duration : 1 h 35 min
Bit rate mode : Variable
Bit rate : 4 633 kb/s
Maximum bit rate : 8 139 kb/s
Channel(s) : Object Based / 8 channels
Channel positions : Object Based / Front: L C R, Side: L R, Back: L R, LFE
Sampling rate : / 48.0 kHz
Frame rate : 1 200.000 FPS (40 spf)
Compression mode : Lossless
Stream size : 3.10 GiB (6%)
Title : Original
Language : English
Default : No
Forced : No

Text #1
ID : 4
Format : UTF-8
Codec ID : S_TEXT/UTF8
Codec ID/Info : UTF-8 Plain Text
Duration : 1 h 28 min
Bit rate : 40 b/s
Count of elements : 752
Stream size : 26.3 KiB (0%)
Title : Full
Language : English
Default : No
Forced : No

Text #2
ID : 5
Format : UTF-8
Codec ID : S_TEXT/UTF8
Codec ID/Info : UTF-8 Plain Text
Duration : 1 h 28 min
Bit rate : 44 b/s
Count of elements : 1009
Stream size : 28.8 KiB (0%)
Title : SDH
Language : English
Default : No
Forced : No
Скріншоти






Джерело: &

Особиста оцінка: 10 - без зайвих вагань рекомендую всім!

Як переглядати 4K UHD на телевізорі через комп'ютер DLNA
4K
Для перегляду можна використати ForkPlayer 2.5 http://forkplayer.tv/ або Plex Media Server https://www.plex.tv/ .
Важливо!!!!! Звичайні DLNA-Сервери не відтворюють 4K фільми
За допомогою в налаштуваннях звертайтеся в приват! Якщо хтось знає інші 100%-ві методи відтворення UHD, прошу також писати в приват


Золотий реліз (завантажене не впливає на рейтинг)
 Трекер:    Зареєстрований   

Завантажити / скачати фільм українською



відео для новачків



 Зареєстрований:   2018-01-26 21:43
 Розмір:   53.95 GB 
 Оцінка фільму:   8.4/10 (Голосів: 10)
   
Інші релізи
   Суддя Дредд / Dredd (2012) AVC 3хUkr/Eng | Sub Eng drop_plz  6 / 1   2.45 GB   2018-10-25 09:24 
   Суддя Дредд / Dredd (2012) 1080p H.265 2хUkr/Eng | Sub Eng -Star-Lord-  3 / 0   4.75 GB   2018-09-10 12:37 
   Суддя Дредд / Dredd (2012) 2хUkr patriot2305  3 / 0   1.58 GB   2013-10-06 17:02 
   Суддя Дредд / Dredd (2012) Remux Ukr/Eng | sub Eng Omikron  2 / 0   26.92 GB   2013-01-24 14:14 
   Суддя Дредд / Dredd (2012) 1080p Ukr/Eng | sub Eng Omikron  3 / 0   13.96 GB   2013-01-22 22:48 
   Суддя Дредд / Dredd (2012) 720p Ukr/Eng | sub Eng Omikron  9 / 0   3.6 GB   2013-01-22 01:13 
Skiff_1956 
Свій


З нами з: 14.09.14
Востаннє: 26.05.19
Повідомлень: 68

2018-01-26 23:51  
Vladuk88 написано:
переклад: професійний дубльований ОМІКРОН


Там точно дубляж???

Vladuk88 
Свій


З нами з: 14.10.09
Востаннє: 25.05.19
Повідомлень: 67

2018-01-27 00:03  
Skiff_1956 написано:
Там точно дубляж???

Так

igor911 
Модератор відео


З нами з: 18.01.08
Востаннє: 26.05.19
Повідомлень: 12543

2018-01-27 00:30  
Skiff_1956 написано:
Там точно дубляж???

виправив.

Додано через 17 секунд:

Vladuk88 написано:
Так

ні.

Vladuk88 
Свій


З нами з: 14.10.09
Востаннє: 25.05.19
Повідомлень: 67

2018-01-27 00:39  
igor911 написано:
ні.

ага вже передивився

Virake 
Попереджень: 1
Попереджень: 1 


З нами з: 07.07.09
Востаннє: 26.05.19
Повідомлень: 6025

2018-01-27 04:59  
судячи зі скріншотів — замилений апскейл, на який наклали дрібне зерно, щоб зімітувати деталізацію.
Едм 
VIP


З нами з: 18.05.08
Востаннє: 24.05.19
Повідомлень: 1238

2018-01-28 02:14  
знову... Що це за стереотип, як 4К так одразу має бути Remux? Де 4К mini?

Додано через 3 хвилини 9 секунд:

Virake написано:
судячи зі скріншотів — замилений апскейл, на який наклали дрібне зерно, щоб зімітувати деталізацію.


Загалом, чимало фільмів з тим чи іншим ефектом з коробки. Наприклад, зерно у І мертві підуть.

igor911 
Модератор відео


З нами з: 18.01.08
Востаннє: 26.05.19
Повідомлень: 12543

2018-01-28 02:33  
Едм написано:
Де 4К mini?

Тут не буде таких гівноріпів, бо немає жодного сенсу у т.з. "4К mini", як і в "1080p-mini", - замалий бітрейт вбиватиме деталізацію і замилюватиме картинку, апскейл з якісного джерела меншої роздільної здатності матиме кращий вигляд.

Додано через 4 хвилини 47 секунд:

Virake написано:
судячи зі скріншотів — замилений апскейл

imdb Technical Specifications написано:
Cinematographic Process Digital Intermediate (2K) (master format)

схоже, так і є, апскейлили з 2K

Додано через 4 хвилини 57 секунд:

Цитата:
Resolution: Upscaled 4K (2160p)
http://www.blu-ray.com/movies/Dredd-4K-Blu-ray/176582/
http://www.blu-ray.com/movies/Dredd-4K-Blu-ray/178863/

Virake 
Попереджень: 1
Попереджень: 1 


З нами з: 07.07.09
Востаннє: 26.05.19
Повідомлень: 6025

2018-01-28 03:00  
вірогідніше, що сама оригінальна плівка мала розмите зображення (тому вирішили апскейлити — все одно нічого не втрачалося). це якщо його взагалі знімали на плівку. в деяких темних сценах дуже багато кольорового шуму, що характерно для цифрових камер.
igor911 
Модератор відео


З нами з: 18.01.08
Востаннє: 26.05.19
Повідомлень: 12543

2018-01-28 03:05  
Virake написано:
вірогідніше

Я ж не дарма наводив цитату з відповідного розділу imdb, там все вказано, на які камери знімалось і на якій плівці друкувалось.

Додано через 1 хвилину 18 секунд:

igor911 написано:
Cinematographic Process Digital Intermediate (2K) (master format)

Virake 
Попереджень: 1
Попереджень: 1 


З нами з: 07.07.09
Востаннє: 26.05.19
Повідомлень: 6025

2018-01-28 04:00  
що ж, прикро. це хороший фільм, вартий гарної якості.
Едм 
VIP


З нами з: 18.05.08
Востаннє: 24.05.19
Повідомлень: 1238

2018-01-28 18:35  
igor911 написано:
Тут не буде таких гівноріпів, бо немає жодного сенсу у т.з. "4К mini", як і в "1080p-mini"


даремно, youtube нормально показує оригінальне 4К. Нащо тоді супер-ефективність сучасни кодеків?

fwk 
Частий відвідувач


З нами з: 06.07.10
Востаннє: 02.05.19
Повідомлень: 32

2018-04-07 02:56  
Якщо ти не першорядний фанат фільму, то цей реліз качати не варто.
Краще взяти норм 1080р і якість буде не гірша, зате зекономиш собі 50 гіг.

Ваш часовий пояс: GMT + 2 Години

Нова тема   Відповісти