Аджі-Баджі (1 Сезон) / Agi Bagi (Season 1) (2014) 1080p

Нові коментарі

Нова тема   Відповісти
Останній раз роздавалося igor911 (2021-04-14)
Автор Повідомлення
ZETMAN 
Свій


З нами з: 09.03.13
Востаннє: 15.04.21
Повідомлень: 85

2018-01-26 20:36  
Аджі-Баджі (1 Сезон) / Agi Bagi (Season 1) (2014) 1080p

Аджі-Баджі (1 Сезон) / Agi Bagi (Season 1) (2014) 1080p


Жанр: анімація, дитячий
Країна: Польша



Кінокомпанія: Badi Badi FX Studio
Режисер: Том Недвeд
Актори: Ярослав Боберек, Біанка Глазербрук, Ангеша Мрозінска, Шон Палмер, Марта Гржесковіак.

Сюжет:
У серіалі розповідається про планету з двома сторонами: Аджі і Баджі і взаємини між двома племенами, що населяють планету: Агінгасом і Бейгаасом. Вони об'єднуються з природою, щоб піклуватися про екосистему, і в кожному епізоді вони вирішують певну проблему, пов'язану з навколишнім середовищем, таку як повінь, сонце, яке прокидається, як використовувати силу вітру, розуміти планету або відокремлювати сміття, І це показує, що ми можемо впоратися з цим, якщо будемо працювати разом.


Тривалість: 1 серія: 10:57 (цілком серій: 12)
Перелік Серій

S1 Ep1 Сонливе сонечко
S1 Ep2 Нахабний вітер
S1 Ep3 Купа сміття
S1 Ep4 Кольоровий дощ
S1 Ep5 Новий ліс
S1 Ep6 Бамблі-землерийка
S1 Ep7 Загублене яйце
S1 Ep8 Повінь та посуха
S1 Ep9 100 дерев шефа
S1 Ep10 Хто це дзижчить
S1 Ep11 Зірка, що впала
S1 Ep12 Квіткова пісенька
Якість:
Відео:
кодек:
розмір кадру: 1920 х 1080
бітрейт: 5884 кб/с

Аудіо:
мова: українська
переклад: професійний дубльований (стерео) Niki Junior
кодек: 2.0
бітрейт: 128кб/с
Info
General
Complete name : D:\ВИДЕО\НА Раздачу\Аджі-Баджі\Season 1\S1 Ep1 Сонливе сонечко.mp4
Format : MPEG-4
Format profile : Base Media
Codec ID : isom
File size : 471 MiB
Duration : 10mn 57s
Overall bit rate : 6 011 Kbps
Writing application : Lavf52.31.0

Video
ID : 1
Format : MPEG-4 Visual
Format profile : [email protected]
Format settings, BVOP : No
Format settings, QPel : No
Format settings, GMC : No warppoints
Format settings, Matrix : Default (H.263)
Codec ID : 20
Duration : 10mn 57s
Bit rate mode : Constant
Bit rate : 6 000 Kbps
Width : 1 920 pixels
Height : 1 080 pixels
Display aspect ratio : 16:9
Frame rate mode : Constant
Frame rate : 29.970 fps
Color space : YUV
Chroma subsampling : 4:2:0
Bit depth : 8 bits
Scan type : Progressive
Bits/(Pixel*Frame) : 0.097
Stream size : 458 MiB (97%)
Writing library : 1.2.1 (UTC 2008-12-04)

Audio
ID : 2
Format :
Format/Info : Advanced Audio Codec
Format version : Version 4
Format profile : LC
Format settings, SBR : No
Codec ID : 40
Duration : 10mn 57s
Bit rate mode : Constant
Bit rate : 165 Kbps
Nominal bit rate : 192 Kbps
Channel(s) : 2 channels
Channel positions : Front: L R
Sampling rate : 48.0 KHz
Stream size : 13.0 MiB (3%)
Скріншоти
Особиста оцінка: 10 - Для дітей те що треба!

За надання сирців дякую пану andros507


Бронзовий реліз (на рейтинг впливає 75% завантаженого)
 Трекер:    Зареєстрований   

Завантажити / скачати мультфільм українською



відео для новачків



 Зареєстрований:   2020-06-02 10:54
 Розмір:   5.55 GB 
 Оцінка мультсеріалу:   8.2/10 (Голосів: 5)
   
sergiyko.5 
Забанено
Забанено


З нами з: 25.02.16
Востаннє: 29.10.20
Повідомлень: 3648

2018-01-27 12:10  
Цей і попередній ваш реліз все ж таки не , бо файли завантажені з архіву сайту, а не записані з трансляції. Якість , на мою думку.
igor911 
Модератор відео


З нами з: 18.01.08
Востаннє: 15.04.21
Повідомлень: 15856

2018-01-27 17:44  
ZETMAN написано:
Format : MPEG-4 Visual
Writing library : 1.2.1

Додаток до релізів в якості HD написано:
4. За винятком ремуксів, дозволено викладати виключно релізи, які кодовані за допомогою або H.265


не пристосований для кодування HD, тому буде стояти статус "недооформлено".

Neytreenor 
Відео Гуртом - запис з ТБ
Відео Гуртом - запис з ТБ


З нами з: 03.04.11
Востаннє: 15.04.21
Повідомлень: 3188

2018-01-27 18:07  
sergiyko.5 написано:
Якість , на мою думку.

, якщо це з архіву онлайн трансляції каналу (наприклад, з divan.tv).
/ , якщо на сайті викладались повні серії для онлайн перегляду, і це не запис з ТБ-трансляції (наприклад, відео з 1plus.1.video).
- це зовсім інша якість, це завантажене з відео-магазинів, де дають саме завантажувати, а не ріпають онлайн-перегляд.

ZETMAN 
Свій


З нами з: 09.03.13
Востаннє: 15.04.21
Повідомлень: 85

2018-01-27 18:45  
Ну поки так буде, якщо на скачування не вплине. Як додаватиму другий сезон оновлю перший.
Telepaiko 
Частий відвідувач


З нами з: 29.07.16
Востаннє: 12.04.21
Повідомлень: 30

2018-07-29 20:24  
Друзі, станьте на роздачу. Хочу докачати.
shineineyes 
Новенький


З нами з: 02.06.20
Востаннє: 11.06.20
Повідомлень: 2

2020-06-02 08:45  
а можно ли получить раздачу пожалуйста для ребенка ?
igor911 
Модератор відео


З нами з: 18.01.08
Востаннє: 15.04.21
Повідомлень: 15856

2020-06-02 11:01  
shineineyes, в нас спілкуються українською
Цитата:
2. Правила та обмеження форуму
Всім без винятку заборонено:
2.1 Спілкуватися іншою мовою, аніж літературною українською


Релізер чомусь зняв реєстрацію торента (2019-12-17 22:22), написав йому в приват і поки відновив реєстрацію. Подивимось, може в когось раптом роздача досі висить у клієнті.

shineineyes 
Новенький


З нами з: 02.06.20
Востаннє: 11.06.20
Повідомлень: 2

2020-06-03 20:37  
надеюсь люди станут чтоб скачать)
ZETMAN 
Свій


З нами з: 09.03.13
Востаннє: 15.04.21
Повідомлень: 85

2020-06-04 12:48  
igor911 написано:
Релізер чомусь зняв реєстрацію торента
мабудь щось не те наклацав! До кінця тижня все відновлю!
Ваш часовий пояс: GMT + 2 Години

Нова тема   Відповісти