Матриця часу / Before I Fall (2017) 1080p Ukr/Eng | Sub Eng

Нові коментарі

Нова тема   Відповісти
Автор Повідомлення
staf777 
Відео Гуртом - підтримка та поширення
Відео Гуртом - підтримка та поширення


З нами з: 16.11.16
Востаннє: 21.05.19
Повідомлень: 2367

2018-01-26 10:51  
Матриця часу / Before I Fall (2017) 1080p Ukr/Eng | Sub Eng

Матриця часу / Before I Fall (2017) 1080p Ukr/Eng | Sub Eng


Жанр: детектив, драма
Країна: США



Кінокомпанія: Open Road Films, Awesomeness Films
Режисер: Рі Руссо-Янг
Актори: Зої Дойч, Хелстон Сейдж, Логан Міллер, Кіан Лоулі, Лів Г'юсон, Олена Кампуріс, Синті Ву, Еріка Тремблей, Дієго Бонета, Дженніфер Білз та інші

Сюжет:
Ви ніколи не замислювалися як би провели день, знаючи, що він останній у вашому житті? Подібні думки ніколи не відвідували старшокласницю Сем. Дівчину цілком влаштовує її життя. Вона і її подруги – найпопулярніші дівчата в школі. Прокинувшись вранці 12 лютого, Сем була впевнена, що попереду на неї чекає захоплюючий день. І він був таким. Але повертаючись додому з вечірки подруги потрапляють в аварію, в якій напевно всі повинні загинути. Але Сем прокидається в своєму ліжку. І на календарі знову 12 лютого. День міг би стати таким само безтурботним і легким, як і всі попередні. Але тепер дівчина знає, що ввечері загине.


Тривалість: 01:38:47
Якість: 1080p
Відео:
кодек:
розмір кадру: 1920x800
бітрейт: 10,7 Mб/с

Аудіо # 1:
мова: українська
переклад: багатоголосий закадровий
кодек: 2.0
бітрейт: 192 кб/с

Аудіо # 2:
мова: англійська
переклад: оригінал
кодек: 5.1
бітрейт: 640 кб/с

Субтитри # 1-3:
мова: англійська
тип: програмні (м'які)
формат: *.srt
Info
General
Unique ID : 183958622434046955209821672021250362906 (0x8A652456AA1E196AB49541227A054E1A)
Complete name : P:\Майбутні релізи\Before I Fall (2017) 1080p [Ukr][Eng] [Sub Eng][Hurtom].
Format :
Format version : Version 4 / Version 2
File size : 7.96 GiB
Duration : 1 h 38 min
Overall bit rate : 11.5 Mb/s
Movie name : Before I Fall (2017) 1080p [Ukr][Eng] [Sub Eng][Hurtom]
Encoded date : UTC 2018-01-26 07:12:24
Writing application : v9.8.0 ('Kuglblids') 64bit
Writing library : libebml v1.3.4 + v1.4.5

Video
ID : 1
Format : AVC
Format/Info : Advanced Video Codec
Format profile : [email protected]
Format settings, CABAC : Yes
Format settings, ReFrames : 5 frames
Codec ID : V_MPEG4/ISO/AVC
Duration : 1 h 38 min
Bit rate : 10.7 Mb/s
Width : 1 920 pixels
Height : 800 pixels
Display aspect ratio : 2.40:1
Frame rate mode : Constant
Frame rate : 23.976 (24000/1001) FPS
Color space : YUV
Chroma subsampling : 4:2:0
Bit depth : 8 bits
Scan type : Progressive
Bits/(Pixel*Frame) : 0.291
Stream size : 7.38 GiB (93%)
Title : Before I Fall (2017)
Writing library : core 148 r2705 3f5ed56
Encoding settings : cabac=1 / ref=5 / deblock=1:-3:-3 / analyse=0x3:0x133 / me=umh / subme=11 / psy=1 / psy_rd=1.05:0.05 / mixed_ref=1 / me_range=32 / chroma_me=1 / trellis=2 / 8x8dct=1 / cqm=0 / deadzone=21,11 / fast_pskip=0 / chroma_qp_offset=-3 / threads=22 / lookahead_threads=4 / sliced_threads=0 / nr=0 / decimate=0 / interlaced=0 / bluray_compat=0 / constrained_intra=0 / bframes=8 / b_pyramid=2 / b_adapt=2 / b_bias=0 / direct=3 / weightb=1 / open_gop=0 / weightp=2 / keyint=240 / keyint_min=23 / scenecut=40 / intra_refresh=0 / rc_lookahead=50 / rc=2pass / mbtree=0 / bitrate=10700 / ratetol=1.0 / qcomp=0.60 / qpmin=0 / qpmax=69 / qpstep=4 / cplxblur=20.0 / qblur=0.5 / vbv_maxrate=50000 / vbv_bufsize=62500 / nal_hrd=none / filler=0 / ip_ratio=1.40 / pb_ratio=1.30 / aq=3:0.80
Language : English
Default : Yes
Forced : No

Audio #1
ID : 2
Format : AC-3
Format/Info : Audio Coding 3
Mode extension : CM (complete main)
Format settings, Endianness : Big
Codec ID : A_AC3
Duration : 1 h 38 min
Bit rate mode : Constant
Bit rate : 192 kb/s
Channel(s) : 2 channels
Channel positions : Front: L R
Sampling rate : 48.0 kHz
Frame rate : 31.250 FPS (1536 spf)
Bit depth : 16 bits
Compression mode : Lossy
Stream size : 136 MiB (2%)
Title : [UA-MVO]
Language : Ukrainian
Default : Yes
Forced : Yes

Audio #2
ID : 3
Format : AC-3
Format/Info : Audio Coding 3
Mode extension : CM (complete main)
Format settings, Endianness : Big
Codec ID : A_AC3
Duration : 1 h 38 min
Bit rate mode : Constant
Bit rate : 640 kb/s
Channel(s) : 6 channels
Channel positions : Front: L C R, Side: L R, LFE
Sampling rate : 48.0 kHz
Frame rate : 31.250 FPS (1536 spf)
Bit depth : 16 bits
Compression mode : Lossy
Stream size : 452 MiB (6%)
Title : Original
Language : English
Default : No
Forced : No

Text #1
ID : 4
Format : UTF-8
Codec ID : S_TEXT/UTF8
Codec ID/Info : UTF-8 Plain Text
Duration : 1 h 32 min
Bit rate : 53 b/s
Count of elements : 1228
Stream size : 36.2 KiB (0%)
Title : Full
Language : English
Default : No
Forced : No

Text #2
ID : 5
Format : UTF-8
Codec ID : S_TEXT/UTF8
Codec ID/Info : UTF-8 Plain Text
Duration : 1 h 32 min
Bit rate : 60 b/s
Count of elements : 1396
Stream size : 40.8 KiB (0%)
Title : SDH
Language : English
Default : No
Forced : No

Text #3
ID : 6
Format : UTF-8
Codec ID : S_TEXT/UTF8
Codec ID/Info : UTF-8 Plain Text
Duration : 1 h 35 min
Bit rate : 74 b/s
Count of elements : 1398
Stream size : 52.1 KiB (0%)
Title : SDH Colored
Language : English
Default : No
Forced : No
Скріншоти



Подяка Соломон Кeйн та Sando7 за доріжку та Electroz'у за її синхронізацію.

Джерело:
Особиста оцінка: 0 - не дивився


 Трекер:    Зареєстрований   

Завантажити / скачати фільм українською



відео для новачків



 Зареєстрований:   2018-01-26 10:51
 Розмір:   7.96 GB 
 Оцінка фільму:   7.8/10 (Голосів: 16)
   
Інші релізи
   Матриця часу / Before I Fall (2017) 1080p H.265 Ukr/Eng | Sub Eng ukr_anonymous  2 / 0   2.65 GB   2018-05-16 17:05 
   Матриця часу / Before I Fall (2017) Remux 1080p Ukr/Eng | Sub Eng/Spa IronBee  1 / 0   24.42 GB   2017-12-02 14:18 
   Матриця часу / Before I Fall (2017) Ukr/Eng | Sub Eng sokeel  4 / 0   1.84 GB   2017-11-22 13:02 
   Матриця часу / Before I Fall (2017) igor911  10 / 1   1.37 GB   2017-10-13 08:31 
   Матриця часу / Before I Fall (2017) 720p Ukr/Eng | Sub Eng 11FrYkT  21 / 0   4.14 GB   2017-10-12 20:06 
   Матриця часу / Before I Fall (2017) AVC Ukr/Eng | Sub Eng Electroz  21 / 0   1.3 GB   2017-10-11 20:31 
ntrader 
Свій


З нами з: 31.05.16
Востаннє: 02.05.19
Повідомлень: 67

2018-01-26 20:46  
ну такий фільм.. Багато чого на місці головної героїні можна було б змінити під час наступних повторених днів, натомість просто марнувала час
Ваш часовий пояс: GMT + 2 Години

Нова тема   Відповісти