Малена / Malèna [Uncut] (2000) 720p Ukr/Ita | Sub Eng

Нові коментарі

Нова тема   Відповісти
Автор Повідомлення
staf777 
Відео Гуртом - підтримка та поширення
Відео Гуртом - підтримка та поширення


З нами з: 16.11.16
Востаннє: 21.11.19
Повідомлень: 3034

2018-01-25 13:20  
Малена / Malèna [Uncut] (2000) 720p Ukr/Ita | Sub Eng

Малена / Malèna [Uncut] (2000) 720p Ukr/Ita | Sub Eng


Жанр: драма, мелодрама, воєнний
Країна: Італія, США



Кінокомпанія: Medusa Film, Miramax, Pacific Pictures
Режисер: Джузеппе Торнаторе / Giuseppe Tornatore
Актори: Моніка Белуччі / Monica Bellucci, Джузеппе Сульфаро / Giuseppe Sulfaro, Лучіано Федеріко / Luciano Federico, Матільде П'яна / Matilde Piana, П'єтро Нотаріані / Pietro Notarianni, Ґаетано Ароніка / Gaetano Aronica, Джилберто Ідонеа / Gilberto Idonea, Анджело Пеллеґріно / Angelo Pellegrino, Ґабріелла Ді Луціо / Gabriella Di Luzio, Піппо Провіденті / Pippo Provvidenti та інші

Сюжет:
Малена - красуня-вдова, мрія чоловіків і предмет заздрості жінок. Дружини розпускають про неї брудні плітки. Чоловіки переслідують її по п'ятах і марять нею.
"Мені було 13, коли я побачив її вперше. Минув час, я кохав багатьох жінок, і коли ми були близькі, вони запитували, чи пам'ятатиму я їх. І я казав: "Так, я буду пам'ятати вас". Але єдина, кого я ніколи не забуду - та, яка ніколи не питала. Малена..."


Тривалість: 01:48:04 (UnCut)
Якість: 720p
Відео:
кодек:
розмір кадру: 1280x544
бітрейт: 5000 кб/с

Аудіо # 1:
мова: українська
переклад: багатоголосий закадровий
кодек: 2.0
бітрейт: 192 кб/с

Аудіо # 2:
мова: італійська
переклад: оригінал
кодек: 5.1
бітрейт: 640 кб/с

Джерело озвучення:


Субтитри:
мова: англійська
тип: програмні (м'які)
формат: *.srt
Info
General
Unique ID : 179174668956834357378335020502935401847 (0x86CBC938BC443225B572BF67D6B7F577)
Complete name : P:\Malèna [Uncut] (2000) 720p [Ukr][Ita] [Sub Eng].
Format :
Format version : Version 4 / Version 2
File size : 4.40 GiB
Duration : 1 h 48 min
Overall bit rate : 5 832 kb/s
Movie name : Malèna [Uncut] (2000) 720p Ukr/Ita | Sub Eng
Encoded date : UTC 2018-01-25 11:04:13
Writing application : v9.8.0 ('Kuglblids') 64bit
Writing library : libebml v1.3.4 + v1.4.5

Video
ID : 1
Format : AVC
Format/Info : Advanced Video Codec
Format profile : [email protected]
Format settings, CABAC : Yes
Format settings, ReFrames : 8 frames
Codec ID : V_MPEG4/ISO/AVC
Duration : 1 h 48 min
Bit rate : 5 000 kb/s
Width : 1 280 pixels
Height : 544 pixels
Display aspect ratio : 2.35:1
Frame rate mode : Constant
Frame rate : 23.976 (24000/1001) FPS
Color space : YUV
Chroma subsampling : 4:2:0
Bit depth : 8 bits
Scan type : Progressive
Bits/(Pixel*Frame) : 0.299
Stream size : 3.77 GiB (86%)
Title : Malèna [UnCut] (2000)
Writing library : core 138 r2358 9e941d1
Encoding settings : cabac=1 / ref=8 / deblock=1:-3:-3 / analyse=0x3:0x133 / me=esa / subme=11 / psy=1 / psy_rd=1.00:0.15 / mixed_ref=1 / me_range=32 / chroma_me=1 / trellis=2 / 8x8dct=1 / cqm=0 / deadzone=21,11 / fast_pskip=0 / chroma_qp_offset=-3 / threads=12 / lookahead_threads=3 / sliced_threads=0 / nr=0 / decimate=1 / interlaced=0 / bluray_compat=0 / constrained_intra=0 / bframes=10 / b_pyramid=2 / b_adapt=2 / b_bias=0 / direct=3 / weightb=1 / open_gop=0 / weightp=2 / keyint=240 / keyint_min=22 / scenecut=40 / intra_refresh=0 / rc_lookahead=40 / rc=2pass / mbtree=1 / bitrate=5000 / ratetol=1.0 / qcomp=0.60 / qpmin=0 / qpmax=69 / qpstep=4 / cplxblur=20.0 / qblur=0.5 / vbv_maxrate=50000 / vbv_bufsize=62500 / nal_hrd=none / ip_ratio=1.40 / aq=1:1.00
Language : English
Default : Yes
Forced : No

Audio #1
ID : 2
Format : AC-3
Format/Info : Audio Coding 3
Mode extension : CM (complete main)
Format settings, Endianness : Big
Codec ID : A_AC3
Duration : 1 h 48 min
Bit rate mode : Constant
Bit rate : 192 kb/s
Channel(s) : 2 channels
Channel positions : Front: L R
Sampling rate : 48.0 kHz
Frame rate : 31.250 FPS (1536 spf)
Bit depth : 16 bits
Compression mode : Lossy
Stream size : 148 MiB (3%)
Title : [UA-MVO][Інтер]
Language : Ukrainian
Default : Yes
Forced : Yes

Audio #2
ID : 3
Format : AC-3
Format/Info : Audio Coding 3
Mode extension : CM (complete main)
Format settings, Endianness : Big
Codec ID : A_AC3
Duration : 1 h 48 min
Bit rate mode : Constant
Bit rate : 640 kb/s
Channel(s) : 6 channels
Channel positions : Front: L C R, Side: L R, LFE
Sampling rate : 48.0 kHz
Frame rate : 31.250 FPS (1536 spf)
Bit depth : 16 bits
Compression mode : Lossy
Stream size : 495 MiB (11%)
Language : Italian
Default : No
Forced : No

Text
ID : 4
Format : UTF-8
Codec ID : S_TEXT/UTF8
Codec ID/Info : UTF-8 Plain Text
Duration : 1 h 43 min
Bit rate : 32 b/s
Count of elements : 693
Stream size : 24.9 KiB (0%)
Language : English
Default : No
Forced : No
Скріншоти



Подяка п.РОМЕО, п.Arsenfpu за запис звуку п.omm за синхронізацію
Джерело:
Особиста оцінка: 0 - не дивився


Срібний реліз (на рейтинг впливає 50% завантаженого)
 Трекер:    Зареєстрований   

Завантажити / скачати фільм українською



відео для новачків



 Зареєстрований:   2018-01-25 13:20
 Розмір:   4.4 GB 
 Оцінка фільму:   9.3/10 (Голосів: 20)
   
Інші релізи
   Малена / Malèna [Uncut] (2000) Remux 1080p Ukr/Ita | Sub Eng BABELAN  1 / 1   16.4 GB   2019-01-23 12:09 
   Малена (Malena) / Malèna [Uncut] (2000) AVC Ukr/Ita Arsenfpu  12 / 0   2.3 GB   2017-12-31 18:27 
   Малена / Malèna [UnCut] (2000) Ukr/Ita | Sub Eng omm  5 / 0   1.93 GB   2015-06-10 13:17 
   Малена / Malèna [Uncut] (2000) 1080p Ukr/Ita | Sub Eng ninenine  4 / 0   8.98 GB   2015-02-20 16:36 
-_-B_E_N_D_E_R-_- 
Забанено
Забанено


З нами з: 09.01.14
Востаннє: 22.05.18
Повідомлень: 900

2018-01-25 15:02  
А де ремукс?
staf777 
Відео Гуртом - підтримка та поширення
Відео Гуртом - підтримка та поширення


З нами з: 16.11.16
Востаннє: 21.11.19
Повідомлень: 3034

2018-01-25 15:15  
-_-B_E_N_D_E_R-_-
Завтра-післязавтра

Siegfried 
VIP


З нами з: 01.11.11
Востаннє: 18.11.19
Повідомлень: 281

2018-01-26 10:45  
Таке щось.
Дивився в кінотеатрі в рік виходу.
Не вразив.
Якісь дитячі нереалізовані еротичні "хвантазії" режисера.
Якби не Моніка - то взагалі не було би за що оку зачепитися.

3/10

armogun 
Попереджень: 1
Попереджень: 1 


З нами з: 04.05.13
Востаннє: 20.11.19
Повідомлень: 554

2018-01-27 18:58  
комедійне збочення, в дусі італійців
Ваш часовий пояс: GMT + 2 Години

Нова тема   Відповісти