Бебі Бос / The Boss Baby (2017) Remux 1080p Ukr/Eng | Sub Ukr/Eng

Нові коментарі

Нова тема   Відповісти
Автор Повідомлення
staf777 
Відео Гуртом - підтримка та поширення
Відео Гуртом - підтримка та поширення


З нами з: 16.11.16
Востаннє: 02.03.21
Повідомлень: 5068

2018-01-24 22:25  
Бебі Бос / The Boss Baby (2017) Remux 1080p Ukr/Eng | Sub Ukr/Eng

Бебі Бос / The Boss Baby (2017) Remux 1080p Ukr/Eng | Sub Ukr/Eng


Жанр: анімація, комедія, сімейний
Країна: США



Кінокомпанія: DreamWorks Animation
Режисер: Том МакГрат
Актори: Алек Болдвін, Стів Бушемі, Ліза Кудроу, Джиммі Кіммел, Майлз Крістофер Бакші, Тобі Магвайр та інші

Сюжет:
Багатьом відомо, як це – коли в родині з'являється молодший брат або сестра. Всю свою увагу і любов батьки приділяють крихітному карапузові, що не замовкає ні на мить. Коли маленький брат з'явився у семирічного Тіма, дива не сталося. Як зачаровані, тато і мама виконували всі забаганки крикливого немовляти. Намагаючись повернути увагу батьків, Тім дізнається, що існує таємна змова. Спеціальні агенти роблять все, щоб дестабілізувати баланс любові в світі. Тепер наш герой просто зобов'язаний зробити все від нього залежне, щоб врятувати дорослих від страшної загрози і повернути в родину баланс миру та любові.


Тривалість: 01:37:32
Якість: Remux 1080p
Відео:
кодек:
розмір кадру: 1920x1080
бітрейт: 26,7 Mб/с

Аудіо # 1:
мова: українська
переклад: професійний дубльований
кодек: 5.1
бітрейт: 448 кб/с

Аудіо # 2:
мова: англійська
переклад: оригінал
кодек: -HD MA 7.1
бітрейт: 4533 кб/с

Субтитри # 1-2:
мова: українська (форсовані, повні)
тип: програмні (м'які)
формат: *.srt

Субтитри # 3-4:
мова: англійська
тип: пререндерні
формат: *.pgs
Info
General
Unique ID : 245517568719452634792731118254206156107 (0xB8B4F6B81F7EE59CABD8FFE4C862FD4B)
Complete name : I:\The Boss Baby (2017) Remux 1080p [Ukr][Eng][Sub Ukr,Eng][Hurtom].
Format :
Format version : Version 4 / Version 2
File size : 21.6 GiB
Duration : 1 h 37 min
Overall bit rate mode : Variable
Overall bit rate : 31.7 Mb/s
Movie name : The Boss Baby (2017) Remux 1080p [Ukr][Eng][Sub Ukr,Eng][Hurtom]
Encoded date : UTC 2018-01-24 13:50:12
Writing application : v9.8.0 ('Kuglblids') 64bit
Writing library : libebml v1.3.4 + v1.4.5
Cover : Yes
Attachments : cover.jpg

Video
ID : 1
Format : AVC
Format/Info : Advanced Video Codec
Format profile : [email protected]
Format settings, CABAC : Yes
Format settings, ReFrames : 4 frames
Codec ID : V_MPEG4/ISO/AVC
Duration : 1 h 37 min
Bit rate mode : Variable
Bit rate : 26.7 Mb/s
Maximum bit rate : 31.0 Mb/s
Width : 1 920 pixels
Height : 1 080 pixels
Display aspect ratio : 16:9
Frame rate mode : Constant
Frame rate : 23.976 (24000/1001) FPS
Color space : YUV
Chroma subsampling : 4:2:0
Bit depth : 8 bits
Scan type : Progressive
Bits/(Pixel*Frame) : 0.537
Stream size : 18.2 GiB (84%)
Title : The Boss Baby (2017)
Default : Yes
Forced : No

Audio #1
ID : 2
Format : AC-3
Format/Info : Audio Coding 3
Mode extension : CM (complete main)
Format settings, Endianness : Big
Codec ID : A_AC3
Duration : 1 h 37 min
Bit rate mode : Constant
Bit rate : 448 kb/s
Channel(s) : 6 channels
Channel positions : Front: L C R, Side: L R, LFE
Sampling rate : 48.0 kHz
Frame rate : 31.250 FPS (1536 spf)
Bit depth : 16 bits
Compression mode : Lossy
Stream size : 312 MiB (1%)
Title : 5.1 @ 448 kbps
Language : Ukrainian
Default : Yes
Forced : Yes

Audio #2
ID : 3
Format :
Format/Info : Digital Theater Systems
Format profile : MA / ES Matrix / Core
Mode : 16
Format settings, Endianness : Big
Codec ID : A_DTS
Duration : 1 h 37 min
Bit rate mode : Variable / Constant / Constant
Bit rate : 4 533 kb/s / 1 509 kb/s / 1 509 kb/s
Channel(s) : 8 channels / 7 channels / 6 channels
Channel positions : Front: L C R, Side: L R, Back: L R, LFE / Front: L C R, Side: L R, Back: C, LFE / Front: L C R, Side: L R, LFE
Sampling rate : 48.0 kHz
Frame rate : 93.750 FPS (512 spf)
Bit depth : 24 bits
Compression mode : Lossless / Lossy / Lossy
Stream size : 3.09 GiB (14%)
Language : English
Default : No
Forced : No

Text #1
ID : 4
Format : UTF-8
Codec ID : S_TEXT/UTF8
Codec ID/Info : UTF-8 Plain Text
Duration : 1 h 19 min
Bit rate : 0 b/s
Count of elements : 20
Stream size : 450 Bytes (0%)
Title : Forced
Language : Ukrainian
Default : Yes
Forced : Yes

Text #2
ID : 5
Format : UTF-8
Codec ID : S_TEXT/UTF8
Codec ID/Info : UTF-8 Plain Text
Duration : 1 h 36 min
Bit rate : 96 b/s
Count of elements : 1590
Stream size : 68.4 KiB (0%)
Title : Full
Language : Ukrainian
Default : No
Forced : No

Text #3
ID : 6
Format : PGS
Muxing mode : zlib
Codec ID : S_HDMV/PGS
Codec ID/Info : Picture based subtitle format used on BDs/HD-DVDs
Duration : 1 h 36 min
Bit rate : 15.8 kb/s
Count of elements : 4026
Stream size : 10.9 MiB (0%)
Language : English
Default : No
Forced : No

Text #4
ID : 7
Format : PGS
Muxing mode : zlib
Codec ID : S_HDMV/PGS
Codec ID/Info : Picture based subtitle format used on BDs/HD-DVDs
Duration : 17 s 100 ms
Bit rate : 9 110 b/s
Count of elements : 18
Stream size : 19.0 KiB (0%)
Language : English
Default : No
Forced : No
Скріншоти



Джерело: &
Особиста оцінка: 0 - не дивився


Золотий реліз (завантажене не впливає на рейтинг)
 Трекер:    Зареєстрований   

Завантажити / скачати мультфільм українською



відео для новачків



 Зареєстрований:   2018-01-24 22:25
 Розмір:   21.58 GB 
 Оцінка мультфільму:   8.9/10 (Голосів: 12)
   
Інші релізи
   Бебі Бос / The Boss Baby (2017) 1080p H.265 Ukr/Eng | Sub Ukr/Eng -Star-Lord-  18 / 0   4.19 GB   2019-07-17 18:28 
   Бебі Бос / The Boss Baby (2017) igor911  19 / 0   1.45 GB   2018-01-14 02:14 
   Бебі Бос / The Boss Baby (2017) UHD Remux 4K 2160p HDR H.265 Ukr/Eng | Sub Ukr/Eng parabola76  4 / 0   21.73 GB   2018-01-13 23:08 
   Бебі Бос / The Boss Baby (2017) 1080p 3D [Half OverUnder] Ukr/Eng | Sub Ukr/Eng Babamin  1 / 0   5.23 GB   2017-09-17 18:50 
   Бебі Бос / The Boss Baby (2017) 720p Ukr/Eng | Sub Ukr/Eng 11FrYkT  8 / 0   3.57 GB   2017-07-30 15:45 
   Бебі Бос / The Boss Baby (2017) AVC Ukr/Eng | Sub Ukr/Eng Electroz  12 / 0   1.99 GB   2017-07-28 08:21 
   Бебі Бос / The Boss Baby (2017) 1080p Ukr/Eng | Sub Ukr/Eng Electroz  5 / 0   7.02 GB   2017-07-28 08:21 
Ваш часовий пояс: GMT + 2 Години

Нова тема   Відповісти