Бігфут Молодший: Стань легендою! / The Son of Bigfoot (2017) Remux 1080p Ukr/Eng | Sub Eng

Нові коментарі

Нова тема   Відповісти
Автор Повідомлення
staf777 
Відео Гуртом - підтримка та поширення
Відео Гуртом - підтримка та поширення


З нами з: 16.11.16
Востаннє: 28.02.21
Повідомлень: 5067

2018-01-24 08:57  
Бігфут Молодший: Стань легендою! / The Son of Bigfoot (2017) Remux 1080p Ukr/Eng | Sub Eng

Бігфут Молодший: Стань легендою! / The Son of Bigfoot (2017) Remux 1080p Ukr/Eng | Sub Eng


Оригінальна обкладинка

Бігфут Молодший: Стань легендою! / The Son of Bigfoot (2017) Remux 1080p Ukr/Eng | Sub Eng
Жанр: анімація, комедія, пригодницький, сімейний
Країна: Франція, Бельгія



Кінокомпанія: nWave Pictures, StudioCanal, Belga Productions
Режисер: Джеремі Дегрусон / Jeremy Degruson, Бен Стассен / Ben Stassen
Актори: Сінда Адамс / Cinda Adams, Джорж Беббіт / George Babbit, Лайла Берзіньш / Laila Berzins, Джоі Кемен / Joey Camen, Джефф Дусетте / Jeff Doucette, Девід Епштейн / David Epstein, Паппі Фолкнер / Pappy Faulkner, Сенді Фокс / Sandy Fox, Кайл Геберт / Kyle Hebert, Маріев Герінгтон / Marieve Herington, Алексіс Ленг / Lex Lang, Юрій Ловенталь / Yuri Lowenthal, Джо Охман / Joe Ochman, Крістофер Л. Парсон / Christopher L. Parson, Тара Платт / Tara Platt, Майкл Соріч / Michael Sorich, Терренс Стоун / Terrence Stone, Джо Томас / Joe Thomas

Сюжет:
Головний герой мультфільму – хлопець на ім'я Адам. Його батько безслідно зник, коли він був ще зовсім малим. Хлопець завжди хотів зустрітися з татом, і його мріям судилося здійснитися. Вирушивши якось до лісу, він випадково натрапив на батька і дізнався, що походить з дуже давнього роду Бігфутів. Таких людей залишилося дуже мало і корпорація HairCo. прагне захопити батька Адама, щоб проводити на ньому свої експерименти. Несподівано хлопець виявляє в собі все більше спільного з Бігфутами. І справа не тільки в дуже великому розмірі ноги і прискореному рості волосся. Тепер Адам розуміє мову тварин.


Тривалість: 01:32:15
Якість: Remux 1080p [Взято з європейського Блу-рея]
Відео:
кодек:
розмір кадру: 1920x1080
бітрейт: 28.1 Мб/с

Аудіо # 1:
мова: українська
переклад: професійний дубльований
кодек: 2.0
бітрейт: 192 кб/с

Аудіо # 2:
мова: англійська
переклад: оригінал
кодек: -HD MA 5.1
бітрейт: 2583 кб/с

Аудіо # 3:
мова: англійська
переклад: оригінал
кодек: 5.1
бітрейт: 1509 кб/с

Субтитри:
мова: англійська
тип: програмні (м'які)
формат: *.srt
Info
General
Unique ID : 171042548299122947918403293984564747206 (0x80AD98B7B88B57879112AE157E809BC6)
Complete name : P:\HD українською » Мультфільми в HD\The Son of Bigfoot (2017) Remux 1080p [Ukr][Eng][Sub Eng][Hurtom].
Format :
Format version : Version 4 / Version 2
File size : 20.9 GiB
Duration : 1 h 32 min
Overall bit rate mode : Variable
Overall bit rate : 32.4 Mb/s
Movie name : The Son of Bigfoot (2017) Remux 1080p [Ukr][Eng][Sub Eng][Hurtom]
Encoded date : UTC 2018-01-26 10:06:42
Writing application : v9.8.0 ('Kuglblids') 64bit
Writing library : libebml v1.3.4 + v1.4.5
Cover : Yes
Attachments : cover

Video
ID : 1
Format : AVC
Format/Info : Advanced Video Codec
Format profile : [email protected]
Format settings, CABAC : Yes
Format settings, ReFrames : 2 frames
Codec ID : V_MPEG4/ISO/AVC
Duration : 1 h 32 min
Bit rate mode : Variable
Bit rate : 28.1 Mb/s
Maximum bit rate : 37.2 Mb/s
Width : 1 920 pixels
Height : 1 080 pixels
Display aspect ratio : 16:9
Frame rate mode : Constant
Frame rate : 23.976 (24000/1001) FPS
Color space : YUV
Chroma subsampling : 4:2:0
Bit depth : 8 bits
Scan type : Progressive
Bits/(Pixel*Frame) : 0.566
Stream size : 18.1 GiB (87%)
Title : The.Son.Of.Bigfoot.2017
Language : English
Default : No
Forced : No

Audio #1
ID : 2
Format : AC-3
Format/Info : Audio Coding 3
Mode extension : CM (complete main)
Format settings, Endianness : Big
Codec ID : A_AC3
Duration : 1 h 32 min
Bit rate mode : Constant
Bit rate : 192 kb/s
Channel(s) : 2 channels
Channel positions : Front: L R
Sampling rate : 48.0 kHz
Frame rate : 31.250 FPS (1536 spf)
Bit depth : 16 bits
Compression mode : Lossy
Stream size : 127 MiB (1%)
Title : 2.0 @ 192 kbps
Language : Ukrainian
Default : Yes
Forced : Yes

Audio #2
ID : 3
Format :
Format/Info : Digital Theater Systems
Format profile : MA / Core
Mode : 16
Format settings, Endianness : Big
Codec ID : A_DTS
Duration : 1 h 32 min
Bit rate mode : Variable / Constant
Bit rate : 2 583 kb/s / 1 509 kb/s
Channel(s) : 6 channels
Channel positions : Front: L C R, Side: L R, LFE
Sampling rate : 48.0 kHz
Frame rate : 93.750 FPS (512 spf)
Bit depth : 24 bits
Compression mode : Lossless / Lossy
Delay relative to video : 167 ms
Stream size : 1.66 GiB (8%)
Title : -HD.MA.5.1
Language : English
Default : No
Forced : No

Audio #3
ID : 4
Format :
Format/Info : Digital Theater Systems
Mode : 16
Format settings, Endianness : Big
Codec ID : A_DTS
Duration : 1 h 32 min
Bit rate mode : Constant
Bit rate : 1 509 kb/s
Channel(s) : 6 channels
Channel positions : Front: L C R, Side: L R, LFE
Sampling rate : 48.0 kHz
Frame rate : 93.750 FPS (512 spf)
Bit depth : 24 bits
Compression mode : Lossy
Delay relative to video : 167 ms
Stream size : 995 MiB (5%)
Title : 5.1
Language : English
Default : No
Forced : No

Text
ID : 5
Format : UTF-8
Codec ID : S_TEXT/UTF8
Codec ID/Info : UTF-8 Plain Text
Duration : 1 h 25 min
Bit rate : 58 b/s
Count of elements : 1252
Stream size : 36.8 KiB (0%)
Language : English
Default : No
Forced : No
Скріншоти



Джерело: &
Особиста оцінка: 0 - не дивився


Золотий реліз (завантажене не впливає на рейтинг)
 Трекер:    Зареєстрований   

Завантажити / скачати мультфільм українською



відео для новачків



 Зареєстрований:   2018-01-26 13:25
 Розмір:   20.88 GB 
 Оцінка мультфільму:   8.4/10 (Голосів: 11)
   
teelmaster1 
Поважний учасник


З нами з: 27.12.16
Востаннє: 15.02.21
Повідомлень: 248

2018-01-25 12:07  
Мультфільм для любителя
bot 
робот


З нами з: 30.09.07
Востаннє: 26.05.05
Повідомлень: 27274

2018-01-26 13:24  
Тему перенесено з Анонси релізів до форуму Мультфільми в HD


staf777

Uberwinder 
VIP


З нами з: 18.11.16
Востаннє: 28.02.21
Повідомлень: 285

2018-03-01 20:12  
Чудовий мультфільм! Красно дякую за реліз!
Ваш часовий пояс: GMT + 2 Години

Нова тема   Відповісти