Брама небесна [Розширена версія] / Heaven's Gate [Extended Director's Cut] (1980)

Нові коментарі

Нова тема   Відповісти
Автор Повідомлення
Anonymous 







2018-01-24 01:30  
Брама небесна [Розширена версія] / Heaven's Gate [Extended Director's Cut] (1980)

Інші постери та обкладинка






Жанр: пригодницький, драма, вестерн
Країна: США



Кіностудія / кінокомпанія: Trans World Entertainment (TWE)
Режисер: Майкл Чіміно / Michael Cimino
Актори: Кріс Крістофферсон / Kris Kristofferson, Крістофер Вокен / Christopher Walken, Джон Херт / John Hurt, Ізабель Юппер / Isabelle Huppert, Міккі Рурк / Mickey Rourke, Джеф Бріджес / Jeff Bridges, Террі О’Квінн / Terry O'Quinn, Джек Конлі / Jack Conley, Вільям Дефо / Willem Dafoe, Том Нунен / Tom Noonan, Керолайн Кава / Caroline Kava, Петро Осуський / Peter Osusky, Іван Корманюк / Ivan Kormanik, Річард Мазур / Richard Masur, Стефан Щерба / Stefan Shcherby, Вальдемар Калиновський / Waldemar Kalinowski та інші

Сюжет:
У цьому величному вестерні режисер "Мисливця на оленів" Майкл Чіміно розповідає історію конфлікту, відомого як "війна округу Джонсон", що відбувся у 1890-му році у Вайомінгу. Шериф округу Джонсон, Джеймс Еверілл, намагається захистити інтереси фермерів - вихідців з Європи від зазіхань багатих землевласників, які наймають найманців для залякування поселенців з метою відібрати в них землю. Починається збройний конфлікт між найманцями землевласників і фермерами, що досягає апофеозу у жорстокому бою. І лише регулярна армія здатна зупинити криваву битву...
Оригінальний трейлер:


Рейтинг MPAA: R - особам до 17 років обов'язкова присутність батьків або дорослого опікуна
Вікова категорія: 16+

Тривалість: 03:37:04 [Розширена (повна) версія 2012 року]
Якість: [Джерело - The Criterion Collection Blu-ray]
Відео:
кодек:
розмір кадру: 720 х 304
бітрейт: 1714 кб/с

Аудіо #1:
мова: українська
переклад: багатоголосий закадровий
кодек: 2.0
бітрейт: 192 кб/с
Info
Код:
General
Complete name               : Heavens Gate [Full version] (1980) [Ukr] [Hurtom].avi
Format                      : AVI
Format/Info                 : Audio Video Interleave
Format profile              : OpenDML
File size                   : 2.91 GiB
Duration                    : 3 h 37 min
Overall bit rate            : 1 916 kb/s
Movie name                  : Брама небесна [Розширена версія] / Heaven's Gate [Extended Director's Cut] (1980) [Ukr] [HURTOM]
Genre                       : пригодницький, драма, вестерн
Writing application         : VirtualDubModUkr 1.5.10.2 (build 2542/release)
Writing library             : VirtualDubMod build 2542/release
Comment                     : https://toloka.to/t86802

Video
ID                          : 0
Format                      : MPEG-4 Visual
Format profile              : Advanced [email protected]
Format settings             : BVOP1 / Custom Matrix
Format settings, BVOP       : 1
Format settings, QPel       : No
Format settings, GMC        : No warppoints
Format settings, Matrix     : Custom
Codec ID                    :
Codec ID/Hint               :
Duration                    : 3 h 37 min
Bit rate                    : 1 714 kb/s
Width                       : 720 pixels
Height                      : 304 pixels
Display aspect ratio        : 2.35:1
Frame rate                  : 23.976 (24000/1001) FPS
Color space                 : YUV
Chroma subsampling          : 4:2:0
Bit depth                   : 8 bits
Scan type                   : Progressive
Compression mode            : Lossy
Bits/(Pixel*Frame)          : 0.327
Stream size                 : 2.60 GiB (89%)
Writing library             : 67

Audio
ID                          : 1
Format                      : AC-3
Format/Info                 : Audio Coding 3
Codec ID                    : 2000
Duration                    : 3 h 37 min
Bit rate mode               : Constant
Bit rate                    : 192 kb/s
Channel(s)                  : 2 channels
Channel positions           : Front: L R
Sampling rate               : 48.0 kHz
Frame rate                  : 31.250 FPS (1536 SPF)
Bit depth                   : 16 bits
Compression mode            : Lossy
Stream size                 : 298 MiB (10%)
Alignment                   : Split accross interleaves
Interleave, duration        : 42  ms (1.00 video frame)
Interleave, preload duratio : 500  ms
Title                       : UKR MVO [AMC]
Service kind                : Complete Main


Джерело: &
Подяка Sando7 та urij546724 за українську доріжку.


Срібний реліз (на рейтинг впливає 50% завантаженого)
 Трекер:    Зареєстрований   

Завантажити / скачати фільм українською



відео для новачків



 Зареєстрований:   2018-01-24 10:44
 Розмір:   2.91 GB 
 Оцінка фільму:   8.9/10 (Голосів: 17)
   
dreamer 
VIP


З нами з: 10.05.08
Востаннє: 12.11.19
Повідомлень: 526

2018-01-24 14:22  
люблю цей жанр,але фільм цей не бачив..а може не пам*ятаю Враження після перегляду .Дякую
Vitya88 
Свій


З нами з: 05.01.14
Востаннє: 12.11.19
Повідомлень: 57

2018-01-26 21:57  
Оце сузір"я акторів!!!
dreamer 
VIP


З нами з: 10.05.08
Востаннє: 12.11.19
Повідомлень: 526

2018-01-29 08:25  
dreamer

подивився й склалося таке враження ,що режисер отримав купу грошей й не знав куди їх викинути ..стрічка вийшла нудною й без динамики ..На один раз..5 з 10

Anonymous 







2018-01-29 08:31  
dreamer написано:
режисер отримав купу грошей

десь так і було після Мисливця на оленей 1978, що взяв п'ять Оскарів.
Цитата:
Кошторис $ 44 млн
Касові збори $ 3 млн 484 тис.


Цитата:
Студія United Artists після виходу фільму зазнала величезних збитків і незабаром припинила самостійне існування, тривалий час не випускаючи помітних картин. Хоча режисер Майкл Чіміно вважався одним з кращих режисерів Голлівуду (його попередній фільм «Мисливець на оленів» мав колосальний успіх і отримав 5 "Оскарів"), невдача цього фільму, поряд з деякими іншими фільмами, стала причиною того, що голлівудські студії стали жорсткіше регулювати виробництво кінокартин і давати менше незалежності режисерам.

dreamer 
VIP


З нами з: 10.05.08
Востаннє: 12.11.19
Повідомлень: 526

2018-01-30 15:16  
передчуття мене не обдурило....дякую за інформацію..
Форкуш 
VIP


З нами з: 03.02.10
Востаннє: 13.11.19
Повідомлень: 2511

2018-01-30 18:00  
Дивлюся фільм. Студенти - дядьки поза 30. Але мелодії українських пісень, типу Тече вода каламутна, коли йде валка людей приємно здивувала)) 7/10
Vitya88 
Свій


З нами з: 05.01.14
Востаннє: 12.11.19
Повідомлень: 57

2018-02-02 20:20  
Петро Осуський / Peter Osusky, Іван Корманюк / Ivan Kormanik, Річард Мазур / Richard Masur, Стефан Щерба / Stefan Shcherby, Вальдемар Калиновський / Waldemar Kalinowski
R.V.V. 
Поважний учасник


З нами з: 09.03.19
Востаннє: 13.11.19
Повідомлень: 151

2019-10-12 16:38  
Залийте, будь-ласка, звук в доріжки, - мій уторрент не качає цей реліз (червона стрілка).
Гонта 
Свій


З нами з: 16.12.09
Востаннє: 12.11.19
Повідомлень: 132

2019-10-12 17:32  
Про українців на Дикому Заході. Дякую за реліз!!!
Гонта 
Свій


З нами з: 16.12.09
Востаннє: 12.11.19
Повідомлень: 132

2019-10-13 23:08  
Передивляюся цей фільм! Український!!!!
Ваш часовий пояс: GMT + 2 Години

Нова тема   Відповісти