Реальна білка 2 / The Nut Job 2: Nutty by Nature (2017) Remux 1080p 2xUkr/Eng | Sub Eng

Нові коментарі

Нова тема   Відповісти
Автор Повідомлення
staf777 
Відео Гуртом - підтримка та поширення
Відео Гуртом - підтримка та поширення


З нами з: 16.11.16
Востаннє: 04.03.21
Повідомлень: 5094

2018-01-23 23:36  
Реальна білка 2 / The Nut Job 2: Nutty by Nature (2017) Remux 1080p 2xUkr/Eng | Sub Eng

Реальна білка 2 / The Nut Job 2: Nutty by Nature (2017) Remux 1080p 2xUkr/Eng | Sub Eng


Жанр: анімація, комедія, пригоди, сімейний
Країна: США, Канада, Південна Корея



Кінокомпанія: Gulfstream Pictures, ToonBox Entertainment, Redrover Co. Ltd.
Режисер: Каллен Брункер
Актори: Вілл Арнетт, Кетрін Гейґл, Майя Рудольф, Джекі Чан, Ізабела Монер, Петер Стормаре, Боббі Каннавале, Боббі Мойнаган, Том Кенні, Ґебріел Іґлесіас

Сюжет:
Головний герой мультфільму, білка на ім'я Злюк, як і раніше живе в парку, здійснюючи вилазки в місто. Колись всі думки Злюка займали горіхи, і він постійно прокручував в голові плани з їх видобутку. Тепер прийшов час для справ важливіших. Стало відомо, що парк, в якому живе безліч родичів Злюка, хочуть знести. Жадібний мер міста хоче побудувати тут парк розваг. Вже готові величезні машини, які швидко зрівняють парк із землею. Але допустити цього не можна, адже тоді всі позбудуться своїх домівок. На допомогу Злюку і його друзям приходить біла миша містер Фенг разом зі своєю мишачою армією. Проти такої кількості тварин ніяка техніка не вистоїть.


Тривалість: 01:31:13
Якість: Remux 1080p
Відео:
кодек:
розмір кадру: 1920x1080
бітрейт: 34,2 Мб/с

Аудіо # 1:
мова: українська
переклад: професійний дубльований | студія Pie Post Production багатоголосий закадровий
кодек: 2.0
бітрейт: 192 кб/с

Аудіо # 2:
мова: українська
переклад: багатоголосий закадровий
кодек: 2.0
бітрейт: 192 кб/с

Аудіо # 3:
мова: англійська
переклад: оригінал
кодек: -HD MA 5.1
бітрейт: 4024 кб/с

Субтитри:
мова: англійська
тип: програмні (м'які)
формат: *.srt
Info
General
Unique ID : 231075095731398793032801405196380921949 (0xADD771D3154FF6D288188ED1C38FE05D)
Complete name : P:\HD українською » Мультфільми в HD\The Nut Job 2 Nutty by Nature (2017) Remux 1080p [2xUkr][Eng][Sub Eng][Hurtom].
Format :
Format version : Version 4 / Version 2
File size : 24.6 GiB
Duration : 1 h 31 min
Overall bit rate mode : Variable
Overall bit rate : 38.6 Mb/s
Movie name : The Nut Job 2: Nutty by Nature (2017) Remux 1080p [Ukr][Eng][Sub Eng][Hurtom]
Encoded date : UTC 2018-04-28 11:26:07
Writing application : v9.8.0 ('Kuglblids') 64bit
Writing library : libebml v1.3.4 + v1.4.5
Attachments : The-Nut-Job-2_3A-Nutty-by-Nature.jpg

Video
ID : 1
Format : AVC
Format/Info : Advanced Video Codec
Format profile : [email protected]
Format settings : CABAC / 4 Ref Frames
Format settings, CABAC : Yes
Format settings, ReFrames : 4 frames
Format settings, GOP : M=3, N=12
Codec ID : V_MPEG4/ISO/AVC
Duration : 1 h 31 min
Bit rate mode : Variable
Bit rate : 34.2 Mb/s
Maximum bit rate : 38.0 Mb/s
Width : 1 920 pixels
Height : 1 080 pixels
Display aspect ratio : 16:9
Frame rate mode : Constant
Frame rate : 23.976 (24000/1001) FPS
Color space : YUV
Chroma subsampling : 4:2:0
Bit depth : 8 bits
Scan type : Progressive
Bits/(Pixel*Frame) : 0.687
Stream size : 21.8 GiB (89%)
Title : The Nut Job 2: Nutty by Nature (2017)
Language : English
Default : Yes
Forced : No

Audio #1
ID : 2
Format : AC-3
Format/Info : Audio Coding 3
Codec ID : A_AC3
Duration : 1 h 31 min
Bit rate mode : Constant
Bit rate : 192 kb/s
Channel(s) : 2 channels
Channel positions : Front: L R
Sampling rate : 48.0 kHz
Frame rate : 31.250 FPS (1536 SPF)
Bit depth : 16 bits
Compression mode : Lossy
Stream size : 125 MiB (0%)
Title : [UA-DUB][Pie Post Production]
Language : Ukrainian
Service kind : Complete Main
Default : Yes
Forced : Yes

Audio #2
ID : 3
Format : AC-3
Format/Info : Audio Coding 3
Codec ID : A_AC3
Duration : 1 h 31 min
Bit rate mode : Constant
Bit rate : 192 kb/s
Channel(s) : 2 channels
Channel positions : Front: L R
Sampling rate : 48.0 kHz
Frame rate : 31.250 FPS (1536 SPF)
Bit depth : 16 bits
Compression mode : Lossy
Stream size : 125 MiB (0%)
Title : [UA-MVO]
Language : Ukrainian
Service kind : Complete Main
Default : No
Forced : No

Audio #3
ID : 4
Format :
Format/Info : Digital Theater Systems
Format profile : MA / Core
Codec ID : A_DTS
Duration : 1 h 31 min
Bit rate mode : Variable / Constant
Bit rate : 4 024 kb/s / 1 509 kb/s
Channel(s) : 6 channels
Channel positions : Front: L C R, Side: L R, LFE
Sampling rate : 48.0 kHz
Frame rate : 93.750 FPS (512 SPF)
Bit depth : 24 bits
Compression mode : Lossless / Lossy
Stream size : 2.56 GiB (10%)
Title : Original
Language : English
Default : No
Forced : No

Text
ID : 5
Format : UTF-8
Codec ID : S_TEXT/UTF8
Codec ID/Info : UTF-8 Plain Text
Duration : 1 h 29 min
Bit rate : 72 b/s
Count of elements : 1765
Stream size : 47.8 KiB (0%)
Title : Sub
Language : English
Default : No
Forced : No
Скріншоти



Подяка Covenant'у та troubless за дубляж, Sando7 та -_-В_E_N_D_E_R-_- за доріжку №2
Джерело: &
Особиста оцінка: 0 - не дивився


Золотий реліз (завантажене не впливає на рейтинг)
 Трекер:    Зареєстрований   

Завантажити / скачати мультфільм українською



відео для новачків



 Зареєстрований:   2018-04-28 14:28
 Розмір:   24.58 GB 
 Оцінка мультфільму:   7.2/10 (Голосів: 10)
   
stog 
Новенький


З нами з: 15.06.11
Востаннє: 27.02.21
Повідомлень: 5

2018-03-21 08:56  
Підкажіть, в 3D буде?
Ваш часовий пояс: GMT + 2 Години

Нова тема   Відповісти