Кінгсман: Золоте кільце / Kingsman: The Golden Circle (2017) Ukr/Eng | Sub Ukr/Eng

Нові коментарі

Нова тема   Відповісти
Автор Повідомлення
Anonymous 







2018-01-24 00:09  
Кінгсман: Золоте кільце / Kingsman: The Golden Circle (2017) Ukr/Eng | Sub Ukr/Eng

Альтернативні постери















Жанр: бойовик, комедія, пригодницький
Країна: Велика Британія, США



Кінокомпанія: Twentieth Century Fox, Marv Films, Shangri-La Entertainment, TSG Entertainment
Режисер: Меттью Вон
Актори: Терон Еджертон, Колін Ферт, Голлі Беррі, Ченнінґ Татум, Джуліанна Мур, Едвард Голкрофт, Педро Паскаль, Джефф Бріджес

Сюжет:
Еггсі і Мерлін зберуться відвідати своїх колег з США — членів організації «Statesman», після того як штаб-квартира «Kingsman» була зруйнована лиходійкою Поппі.


Тривалість: 02:21:02
Якість:
Відео:
кодек:
розмір кадру: 720 х 304
бітрейт: 1756 кб/с

Аудіо # 1:
мова: українська
переклад: професійний дубльований | студія Postmodern
кодек: 5.1
бітрейт: 448 кб/с
Інформація про дубляж
Переклад: Сергій Ковальчук
Режисер дубляжу: Катерина Брайковська
Звукорежисер: Андрій Жолуденко
Менеджер проекту: Ірина Туловська
Ролі дублювали: Еґґзі - Андрій Федінчик, Гаррі Гарт - Олег Лепенець, Мерлін - Михайло Жонін, Поппі - Лідія Муращенко , Віскі - Андрій Мостренко, Чарлі - Дмитро Сова, Принцеса Тільда - Наталя Романько-Кисельова, Імбирний Ель - Катерина Сергєєва, Текіла - Дмитро Гаврилов, Клара - Катерина Качан.
Епізодичні ролі: Шампанське - Олександр Ігнатуша, Елтон Джон - Богдан Бенюк, Роксі - Оксана Гринько, Джамал - Роман Молодій, Ліам - Андрій Соболєв.
Також ролі дублювали: Володимир Нечепоренко, Юрій Сосков, Євген Пашин, Світлана Шекера, Юрій Висоцький, Наталя Поліщук, Валерій Легін, Олексій Череватенко, Володимир Терещук, Дмитро Тварковський, Кирило Нікітенко, Дмитро Ануфрієв та Алла Клименко.

Дубльовано студією Postmodern.
Аудіо # 2:
мова: англійська
переклад: оригінал
кодек: 5.1
бітрейт: 448 кб/с

Субтитри # 1-2:
мова: українська (форсовані, повні)
тип: програмні (м'які)
формат: *.srt

Субтитри # 3-5:
мова: англійська (форсовані, повні, SDH)
тип: програмні (м'які)
формат: *.srt
Info
Код:
General
Complete name               : Kingsman. The Golden Circle (2017) [Ukr,Eng] [Hurtom].avi
Format                      : AVI
Format/Info                 : Audio Video Interleave
Format profile              : OpenDML
File size                   : 2.63 GiB
Duration                    : 2 h 21 min
Overall bit rate            : 2 669 kb/s
Movie name                  : Кінгсман: Золоте кільце / Kingsman: The Golden Circle (2017) [Ukr,Eng] [Hurtom]
Genre                       : бойовик, комедія, пригодницький
Writing application         : VirtualDubModUkr 1.5.10.2 (build 2542/release)
Writing library             : VirtualDubMod build 2542/release
Comment                     : https://toloka.to/t86799

Video
ID                          : 0
Format                      : MPEG-4 Visual
Format profile              : Advanced [email protected]
Format settings             : BVOP1 / Custom Matrix
Format settings, BVOP       : 1
Format settings, QPel       : No
Format settings, GMC        : No warppoints
Format settings, Matrix     : Custom
Codec ID                    :
Codec ID/Hint               :
Duration                    : 2 h 21 min
Bit rate                    : 1 756 kb/s
Width                       : 720 pixels
Height                      : 304 pixels
Display aspect ratio        : 2.35:1
Frame rate                  : 23.976 (24000/1001) FPS
Color space                 : YUV
Chroma subsampling          : 4:2:0
Bit depth                   : 8 bits
Scan type                   : Progressive
Compression mode            : Lossy
Bits/(Pixel*Frame)          : 0.335
Stream size                 : 1.73 GiB (66%)
Writing library             : 73

Audio #1
ID                          : 1
Format                      : AC-3
Format/Info                 : Audio Coding 3
Codec ID                    : 2000
Duration                    : 2 h 21 min
Bit rate mode               : Constant
Bit rate                    : 448 kb/s
Channel(s)                  : 6 channels
Channel positions           : Front: L C R, Side: L R, LFE
Sampling rate               : 48.0 kHz
Frame rate                  : 31.250 FPS (1536 SPF)
Bit depth                   : 16 bits
Compression mode            : Lossy
Stream size                 : 452 MiB (17%)
Alignment                   : Split accross interleaves
Interleave, duration        : 42  ms (1.00 video frame)
Interleave, preload duratio : 500  ms
Title                       : UKR Dub [Postmodern, Blu-ray]
Service kind                : Complete Main

Audio #2
ID                          : 2
Format                      : AC-3
Format/Info                 : Audio Coding 3
Codec ID                    : 2000
Duration                    : 2 h 21 min
Bit rate mode               : Constant
Bit rate                    : 448 kb/s
Channel(s)                  : 6 channels
Channel positions           : Front: L C R, Side: L R, LFE
Sampling rate               : 48.0 kHz
Frame rate                  : 31.250 FPS (1536 SPF)
Bit depth                   : 16 bits
Compression mode            : Lossy
Stream size                 : 452 MiB (17%)
Alignment                   : Split accross interleaves
Interleave, duration        : 42  ms (1.00 video frame)
Interleave, preload duratio : 500  ms
Title                       : ENG Original
Service kind                : Complete Main


Джерело: &


 Трекер:    Зареєстрований   

Завантажити / скачати фільм українською



відео для новачків



 Зареєстрований:   2018-01-24 00:37
 Розмір:   2.63 GB 
 Оцінка фільму:   8.3/10 (Голосів: 20)
   
podkradun 
Новенький


З нами з: 05.06.17
Востаннє: 16.09.19
Повідомлень: 4

2018-01-26 23:22  
Вельми дякую! Чудова робота! Фільм у залік!
Ваш часовий пояс: GMT + 2 Години

Нова тема   Відповісти