Фабрика погоди з Річардом Хаммондом (Сезон 1) / Wild Weather with Richard Hammond (Season 1) (2014) 720p Ukr/Eng | Sub Ukr

Нові коментарі

Нова тема   Відповісти
Автор Повідомлення
DareDevil96 
Відео Гуртом - запис з ТБ
Відео Гуртом - запис з ТБ


З нами з: 23.07.10
Востаннє: 14.02.19
Повідомлень: 610

2018-01-23 21:21  
Фабрика погоди з Річардом Хаммондом (Сезон 1) / Wild Weather with Richard Hammond (Season 1) (2014) 720p Ukr/Eng | Sub Ukr


Фабрика погоди з Річардом Хаммондом (Сезон 1) / Wild Weather with Richard Hammond (Season 1) (2014) 720p Ukr/Eng | Sub Ukr




Жанр: документальний
Країна: Велика Британія, Австрія, Південна Корея

Телеканал / кіностудія: British Broadcasting Corporation (BBC), Hamster's Wheel Productions, The Open University
Режисер: Грем Бут (Graham Booth)
Актори: Річард Хаммонд (Richard Hammond), Горія Ханган ( Horia Hangan), Чарльз Найт (Charles Knight), Вальтер Стейнкоглер (Walter Steinkogler) та інші.

Сюжет:
Погода - це одна з найбільш вражаючих сил на планеті. Вона може похвалитись руйнівною силою та видовищною красою.
Де б ви не жили в світі, але погода визначає ваш світ. Проте для більшості з нас її природа, це загадка. Аби зрозуміти погоду, треба в неї зануритись. І ми розповімо вам про основні погодні стихії. Та відкриємо її у низці сміливих, амбітних та, іноді, досить незвичних експериментів.


Тривалість: ~00:58:00 x4
Перелік серій
1. Вітер, невидима сила. (Wind. The Invisible Force)
2. Вода. Змінюючи форму (Water. The Shape Shifter)
3. Температура, рушійна сила (Temperature. The Driving Force)
4. Спеціальний випуск (Special)
Якість:
Відео:
кодек:
розмір кадру: 1280 х 720
частота кадрів: 25.000 кадр/сек (1-3), 23.976 кадр/сек (4)
бітрейт: ~2 299 кб/с, 2 800 кб/с

Аудіо:
мова: українська
переклад: двоголосий закадровий
кодек: MP2 2.0
бітрейт: 192 кб/с

Аудіо # 2:
мова: англійська
переклад: оригінал
кодек: 2.0 / 2.0
бітрейт: 192 кб/с / 160кб/с

Субтитри:
мова: українська, на місця без перекладу
тип: програмні (м'які)
формат: *.srt
На жаль, транслювались серії коротші на 10 хв., на ці місця є субтитри. Найбільше "постраждала" 4-а серія, де озвучки немає протягом 7 хв. поспіль...
Info (е1-3)
Video
ID : 1
Format : AVC
Format/Info : Advanced Video Codec
Format profile : [email protected]
Format settings : CABAC / 2 Ref Frames
Format settings, CABAC : Yes
Format settings, ReFrames : 2 frames
Codec ID : V_MPEG4/ISO/AVC
Duration : 57 min 59 s
Bit rate mode : Variable
Bit rate : 2 290 kb/s
Maximum bit rate : 3 500 kb/s
Width : 1 280 pixels
Height : 720 pixels
Display aspect ratio : 16:9
Frame rate mode : Constant
Frame rate : 25.000 FPS
Color space : YUV
Chroma subsampling : 4:2:0
Bit depth : 8 bits
Scan type : Progressive
Bits/(Pixel*Frame) : 0.099
Stream size : 950 MiB (89%)
Default : Yes
Forced : No

Audio #1
ID : 2
Format : AC-3
Format/Info : Audio Coding 3
Codec ID : A_AC3
Duration : 57 min 59 s
Bit rate mode : Constant
Bit rate : 192 kb/s
Channel(s) : 2 channels
Channel positions : Front: L R
Sampling rate : 48.0 kHz
Frame rate : 31.250 FPS (1536 SPF)
Bit depth : 16 bits
Compression mode : Lossy
Delay relative to video : -40 ms
Stream size : 79.7 MiB (7%)
Title : ZAKADR, MEGA
Language : Ukrainian
Service kind : Complete Main
Default : Yes
Forced : No

Audio #2
ID : 3
Format :
Format/Info : Advanced Audio Codec
Format profile : LC
Codec ID : A_AAC-2
Duration : 57 min 59 s
Bit rate : 93.5 kb/s
Channel(s) : 2 channels
Channel positions : Front: L R
Sampling rate : 48.0 kHz
Frame rate : 46.875 FPS (1024 SPF)
Compression mode : Lossy
Delay relative to video : -40 ms
Stream size : 38.8 MiB (4%)
Default : No
Forced : No

Text
ID : 4
Format : UTF-8
Codec ID : S_TEXT/UTF8
Codec ID/Info : UTF-8 Plain Text
Duration : 18 min 12 s
Bit rate : 45 b/s
Count of elements : 81
Stream size : 6.12 KiB (0%)
Title : Ukr by DD96
Language : Ukrainian
Default : Yes
Forced : No
Info (e4)
Video
ID : 1
Format : AVC
Format/Info : Advanced Video Codec
Format profile : [email protected]
Format settings : CABAC / 4 Ref Frames
Format settings, CABAC : Yes
Format settings, ReFrames : 4 frames
Codec ID : V_MPEG4/ISO/AVC
Duration : 55 min 18 s
Bit rate : 2 800 kb/s
Width : 1 280 pixels
Height : 720 pixels
Display aspect ratio : 16:9
Frame rate mode : Constant
Frame rate : 23.976 (24000/1001) FPS
Color space : YUV
Chroma subsampling : 4:2:0
Bit depth : 8 bits
Scan type : Progressive
Bits/(Pixel*Frame) : 0.127
Stream size : 1.08 GiB (89%)
Writing library : core 130 r2273 b3065e6
Encoding settings : cabac=1 / ref=1 / deblock=1:0:0 / analyse=0x3:0x3 / me=dia / subme=1 / psy=1 / psy_rd=1.00:0.00 / mixed_ref=0 / me_range=16 / chroma_me=1 / trellis=0 / 8x8dct=1 / cqm=0 / deadzone=21,11 / fast_pskip=1 / chroma_qp_offset=0 / threads=6 / lookahead_threads=1 / sliced_threads=0 / nr=0 / decimate=1 / interlaced=0 / bluray_compat=0 / constrained_intra=0 / bframes=3 / b_pyramid=2 / b_adapt=1 / b_bias=0 / direct=1 / weightb=1 / open_gop=0 / weightp=1 / keyint=240 / keyint_min=24 / scenecut=40 / intra_refresh=0 / rc_lookahead=0 / rc=abr / mbtree=0 / bitrate=2800 / ratetol=1.0 / qcomp=0.60 / qpmin=0 / qpmax=69 / qpstep=4 / vbv_maxrate=62500 / vbv_bufsize=78125 / nal_hrd=none / ip_ratio=1.40 / pb_ratio=1.30 / aq=1:1.00
Default : Yes
Forced : No
Color range : Limited
Color primaries : BT.709
Transfer characteristics : BT.709
Matrix coefficients : BT.709

Audio #1
ID : 2
Format : AC-3
Format/Info : Audio Coding 3
Codec ID : A_AC3
Duration : 55 min 18 s
Bit rate mode : Constant
Bit rate : 192 kb/s
Channel(s) : 2 channels
Channel positions : Front: L R
Sampling rate : 48.0 kHz
Frame rate : 31.250 FPS (1536 SPF)
Bit depth : 16 bits
Compression mode : Lossy
Stream size : 76.0 MiB (6%)
Title : Ukr, Zakadr MEGA
Language : Ukrainian
Service kind : Complete Main
Default : Yes
Forced : No

Audio #2
ID : 3
Format :
Format/Info : Advanced Audio Codec
Format profile : LC
Codec ID : A_AAC-2
Duration : 55 min 18 s
Bit rate : 160 kb/s
Channel(s) : 2 channels
Channel positions : Front: L R
Sampling rate : 44.1 kHz
Frame rate : 43.066 FPS (1024 SPF)
Compression mode : Lossy
Stream size : 63.3 MiB (5%)
Language : English
Default : No
Forced : No

Text
ID : 4
Format : UTF-8
Codec ID : S_TEXT/UTF8
Codec ID/Info : UTF-8 Plain Text
Duration : 6 min 27 s
Bit rate : 134 b/s
Count of elements : 104
Stream size : 6.36 KiB (0%)
Title : Ukr by DD96
Language : Ukrainian
Default : Yes
Forced : No


Джерело озвучення:


Скріншоти






Джерело: DareDevil96 спеціально для
Особиста оцінка: 9 - справді цікава та пізнавальна передача, якій Хаммонд додає класного настрою)


Срібний реліз (на рейтинг впливає 50% завантаженого)
 Трекер:    Зареєстрований   

Завантажити / скачати фільм українською



відео для новачків



 Зареєстрований:   2018-01-23 21:25
 Розмір:   4.36 GB 
 Оцінка фільму:   9.8/10 (Голосів: 9)
 by DareDevil96
   
bot 
робот


З нами з: 30.09.07
Востаннє: 26.05.05
Повідомлень: 20704

2018-01-23 21:22  
Тему перенесено з BBC до форуму Документальні фільми в HD


DareDevil96

DareDevil96 
Відео Гуртом - запис з ТБ
Відео Гуртом - запис з ТБ


З нами з: 23.07.10
Востаннє: 14.02.19
Повідомлень: 610

2018-01-23 21:29  
Сподіваюсь, що субтитри не сильно заважатимуть) Якщо щось, то можна вимкнути...

Як гадаєте, SD реліз варто робити?

igor911 
Відео Гуртом
Відео Гуртом


З нами з: 18.01.08
Востаннє: 19.02.19
Повідомлень: 12040

2018-01-23 21:50  
Дякую за реліз, дав срібло за субтитри.
DareDevil96 
Відео Гуртом - запис з ТБ
Відео Гуртом - запис з ТБ


З нами з: 23.07.10
Востаннє: 14.02.19
Повідомлень: 610

2018-01-23 22:03  
igor911
Дякую, друже Wink (1) Через них реліз відкладався декілька раз...

MrRyanCooper 
VIP


З нами з: 23.08.12
Востаннє: 03.02.19
Повідомлень: 491

2018-03-31 20:45  
круто, давно хотів на нашій мові знайти. Дякую!
Ваш часовий пояс: GMT + 2 Години

Нова тема   Відповісти