Бойова залізниця (Сезон 1) / Combat Trains (Season 1) (2015) AVC

Нові коментарі

Нова тема   Відповісти
Автор Повідомлення
DareDevil96 
Відео Гуртом - запис з ТБ
Відео Гуртом - запис з ТБ


З нами з: 23.07.10
Востаннє: 25.01.21
Повідомлень: 615

2018-01-22 18:08  
Бойова залізниця (Сезон 1) / Combat Trains (Season 1) (2015) AVC


Бойова залізниця (Сезон 1) / Combat Trains (Season 1) (2015) AVC



Жанр: документальний
Країна: Велика Британія



Телеканал / кіностудія: Woodcut Media
Режисер: Джонатан Мейо (Jonathan Mayo)
Актори: Марк Фелтон (Mark Felton), Даніель Найт (Daniel Knight), Ліза Ронеган (Lisa Ronaghan), Нікола Тріфуновіч (Nikola Trifunovic) та інші.

Сюжет:
Сталева міць, що поставила мистецтво знищувати на залізничні рейки. Чи є слабке місце у німецьких локомотивів? Як будувався поїзд "фюрера"? Та де знаходиться залізниця смерті? Невідомі інженерні подвиги другої світової у циклі документального фільму "Бойова залізниця".

Тривалість: ~00:43:00 x8
Перелік серій
1. Поїзди нацистів (Nazi Railways)
2. Залізниця смерті (Death Railways)
3. Поїзди швидкої допомоги (Ambulance Trains)
4. Перша залізнична війна (The First Railroad War)
5. Цінний вантаж (Precious Cargo)
6. Міфи і таємниці (Secrets and Lies)
7. Перша світова війна (World War One)
8. Друга світова війна (World War Two)

Якість: AVC
Відео:
кодек:
розмір кадру: 704 х 392
частота кадрів: 25.000 кадр/сек
бітрейт: ~1 399 кб/с

Аудіо:
мова: українська
переклад: двоголосий закадровий
кодек: MP2 2.0
бітрейт: 192 кб/с
Info
Video
ID : 1
Format : AVC
Format/Info : Advanced Video Codec
Format profile : [email protected]
Format settings : CABAC / 16 Ref Frames
Format settings, CABAC : Yes
Format settings, ReFrames : 16 frames
Codec ID : V_MPEG4/ISO/AVC
Duration : 43 min 17 s
Bit rate : 1 400 kb/s
Width : 704 pixels
Height : 392 pixels
Display aspect ratio : 16:9
Frame rate mode : Constant
Frame rate : 25.000 FPS
Color space : YUV
Chroma subsampling : 4:2:0
Bit depth : 8 bits
Scan type : Progressive
Bits/(Pixel*Frame) : 0.203
Stream size : 424 MiB (86%)
Writing library : core 146 r2538 121396c
Encoding settings : cabac=1 / ref=16 / deblock=1:-2:-1 / analyse=0x3:0x133 / me=umh / subme=10 / psy=1 / psy_rd=1.00:0.20 / mixed_ref=1 / me_range=24 / chroma_me=1 / trellis=2 / 8x8dct=1 / cqm=0 / deadzone=21,11 / fast_pskip=1 / chroma_qp_offset=-3 / threads=6 / lookahead_threads=1 / sliced_threads=0 / nr=0 / decimate=1 / interlaced=0 / bluray_compat=0 / constrained_intra=0 / bframes=8 / b_pyramid=2 / b_adapt=2 / b_bias=0 / direct=3 / weightb=1 / open_gop=0 / weightp=2 / keyint=250 / keyint_min=25 / scenecut=40 / intra_refresh=0 / rc_lookahead=60 / rc=2pass / mbtree=1 / bitrate=1400 / ratetol=1.0 / qcomp=0.60 / qpmin=0 / qpmax=69 / qpstep=4 / cplxblur=20.0 / qblur=0.5 / ip_ratio=1.40 / aq=1:1.00
Default : Yes
Forced : No

Audio
ID : 2
Format : MPEG Audio
Format version : Version 1
Format profile : Layer 2
Codec ID : A_MPEG/L2
Codec ID/Hint : MP2
Duration : 43 min 17 s
Bit rate mode : Constant
Bit rate : 192 kb/s
Channel(s) : 2 channels
Sampling rate : 48.0 kHz
Compression mode : Lossy
Stream size : 59.4 MiB (12%)
Default : Yes
Forced : No


Запис з телеканалу:


Скріншоти


Джерело: DareDevil96 спеціально для
Особиста оцінка: 8 - досить цікаво


Подяка Neytreenor, POMEO та aaa4523 за допомогу у записі.



Бронзовий реліз (на рейтинг впливає 75% завантаженого)
 Трекер:    Зареєстрований   

Завантажити / скачати торрент



відео для новачків



 Зареєстрований:   2018-01-29 20:11
 Розмір:   3.86 GB 
 Оцінка:   9.2/10 (Голосів: 13)
 Бойова залізниця (4 епізоди) / Combat Trains: Series 1 (4 episodes) (2015) SATRip-AVC by DareDevil96
   
DareDevil96 
Відео Гуртом - запис з ТБ
Відео Гуртом - запис з ТБ


З нами з: 23.07.10
Востаннє: 25.01.21
Повідомлень: 615

2018-01-22 18:29  
В наявності ще деякий час будуть "сирі" записи (REMUX, .ts) для тих, хто забажає зробити AVI-реліз.
Бо поки такий реліз не планую робити, та й не знаю чи варто. (можливо лише, коли запишу усі епізоди..)

fedyk2012 
Частий відвідувач


З нами з: 02.05.12
Востаннє: 04.03.21
Повідомлень: 25

2018-01-22 18:36  
DareDevil96
Дякую за запис.
Може викласти на fex.net "сирі" записи?

DareDevil96 
Відео Гуртом - запис з ТБ
Відео Гуртом - запис з ТБ


З нами з: 23.07.10
Востаннє: 25.01.21
Повідомлень: 615

2018-01-22 19:02  
fedyk2012
ось тут є: https://fex.net/#!213395554184
якщо справді цікавить реліз у АВІ, то можу на днях зробити...

Stepan2009 
VIP


З нами з: 18.09.10
Востаннє: 05.03.21
Повідомлень: 342

2018-01-22 20:39  
DareDevil96 Ще й як цікавить. Було б ще краще звести у вищій якості, хоча б 720. Історія багатьох цікавить, особливо військова. Та й з міркувань того, що потрібно зберігати передачі українсьою у хорошій якості, для чого у служить Гуртом і Толока.

Додано через 27 хвилин 53 секунди:

З іншої сторони, вибачаютьсь. Спершу не помітив, що -AVC ріп. Тому АВІ можна і не робити, хіба що комусь потрібно буде переглядати на ДВД плеєрах.

DareDevil96 
Відео Гуртом - запис з ТБ
Відео Гуртом - запис з ТБ


З нами з: 23.07.10
Востаннє: 25.01.21
Повідомлень: 615

2018-01-22 20:54  
Stepan2009
Я про це і питав: чи варто робити AVI ріпи, якщо вже є АVC. Відповідь зрозумів)
А щодо кращої якості, то я б одразу звів під якісь HD-ріпи, якщо б вони були.
Знайшов лише PDTV-ріпи...

Stepan2009 
VIP


З нами з: 18.09.10
Востаннє: 05.03.21
Повідомлень: 342

2018-01-23 00:26  
DareDevil96
Дякую. Я спершу нерозібрався, в якому це форматі.

Homra 
Свій


З нами з: 22.03.09
Востаннє: 05.03.21
Повідомлень: 69

2018-01-27 20:00  
Решта серій сьогодні о 21 з повторами завтра вдень та ввечері. Не проґавте
DareDevil96 
Відео Гуртом - запис з ТБ
Відео Гуртом - запис з ТБ


З нами з: 23.07.10
Востаннє: 25.01.21
Повідомлень: 615

2018-01-29 20:13  
Homra
дякую за нагадування. Але все ж погода внесла свої корективи..

Додано через 42 хвилини 30 секунд:

29.01.2018 | ТОРРЕНТ ОНОВЛЕНО! Сезон укомплектовано повністю.

hetzendorf 
Забанено
Забанено


З нами з: 23.07.15
Востаннє: 05.01.21
Повідомлень: 2966

2019-02-25 23:46  
Ну таке собі, все якось похапцем, галопом по Європах. Деякі нові цікаві факти дізнався, наприклад про поштову підземну залізницю у Лондоні, але загалом — глянути й забути. На датах подій немає ніякого акценту, доводиться перемотувати назад, щоби вхопити історичний контекст. Ще й переклад ніякий, французькі власні імена покручені й геть невпізнавані.
7/10

Ваш часовий пояс: GMT + 2 Години

Нова тема   Відповісти