Конг: Острів черепа / Kong: Skull Island (2017)

Нові коментарі

Нова тема   Відповісти
Автор Повідомлення
Anonymous 







2018-01-22 13:43  
Конг: Острів черепа / Kong: Skull Island (2017)

Альтернативний постер


Жанр: фантастика, фентезі, бойовик, пригодницький
Країна: США



Кінокомпанія: Legendary Entertainment, Tencent Pictures, Warner Bros
Режисер: Джордан Вот-Робертс / Jordan Vogt-Roberts
Актори: Том Гіддлстон / Tom Hiddleston, Брі Ларсон / Brie Larson, Семюел Л. Джексон / Samuel L. Jackson, Джон Сі Рейллі / John C. Reilly, Джон Ґудмен / John Goodman, Корі Гоукінс / Corey Hawkins, Джон Ортіц / John Ortiz, Тянь Цзин / Tian Jing, Тобі Кеббелл / Toby Kebbell, Ші Вігхем / Shea Whigham та інші

Сюжет:
1971 рік. У Тихому океані знаходиться острів Черепа, де наука зустрічається з міфом. Колись саме там був знайдений славетний Кінг-Конг. Капітан Джеймс Конрад стоїть на чолі експедиції в пошуках зниклого брата і якоїсь дивної субстанції на цей таємничий острів. Але люди прийшли зі зброєю, а таким гостям ніхто не радий. Експедиція опиняється в джунглях, де вони зустрічають інших людей. Від їхнього лідера Марлоу вони дізнаються, що Кінг-Конг – не єдине і далеко не найнебезпечніше створіння на острові. Небезпека повсюди.
Офіційні українські промо та трейлери:








Рейтинг MPAA: PG-13 - дітям до 13 років перегляд не бажаний
Вікова категорія: 12+
Тривалість: 01:58:23
Якість: [Hurtom, джерело - Blu-ray]
Відео:
кодек:
розмір кадру: 720 х 304
бітрейт: 1552 кб/с

Аудіо:
мова: українська
переклад: професійний дубльований | Postmodern
кодек: 2.0 [стерео]
бітрейт: 192 кб/с
Інформація про дубляж
Режисер дубляжу: Павло Скороходько
Переклад: Олег Колесніков
Звукорежисер: Андрій Жолуденко
Звукорежисер перезапису: Дмитро Мялковський
Ролі дублювали: Дмитро Терещук, Андрій Альохін, Юлія Перенчук, Борис Георгієвський, Михайло Федорченко, Павло Лі, Дмитро Бузинський, Олександр Ігнатуша, Володимир Кокотунов, Дмитро Вікулов, Дмитро Сова та інші.

Фільм дубльовано компанією Postmodern
Субтитри:
мова: українська (форсовані)
тип: програмні (м'які)
формат: *.srt
Info
Код:
General
Complete name               : Kong.Skull Island (2017) [Ukr] [Hurtom].avi
Format                      : AVI
Format/Info                 : Audio Video Interleave
File size                   : 1.45 GiB
Duration                    : 1 h 58 min
Overall bit rate            : 1 753 kb/s
Movie name                  : Конг: Острів черепа / Kong: Skull Island (2017) [Ukr] [Hurtom]
Genre                       : фантастика, фентезі, бойовик, пригодницький
Writing application         : VirtualDubModUkr 1.5.10.2 (build 2542/release)
Writing library             : VirtualDubMod build 2542/release
Comment                     : https://toloka.to/t86756

Video
ID                          : 0
Format                      : MPEG-4 Visual
Format profile              : Advanced [email protected]
Format settings             : BVOP1
Format settings, BVOP       : 1
Format settings, QPel       : No
Format settings, GMC        : No warppoints
Format settings, Matrix     : Default (MPEG)
Codec ID                    :
Codec ID/Hint               :
Duration                    : 1 h 58 min
Bit rate                    : 1 552 kb/s
Width                       : 720 pixels
Height                      : 304 pixels
Display aspect ratio        : 2.35:1
Frame rate                  : 23.976 (24000/1001) FPS
Color space                 : YUV
Chroma subsampling          : 4:2:0
Bit depth                   : 8 bits
Scan type                   : Progressive
Compression mode            : Lossy
Bits/(Pixel*Frame)          : 0.296
Stream size                 : 1.28 GiB (89%)
Writing library             : 67

Audio
ID                          : 1
Format                      : AC-3
Format/Info                 : Audio Coding 3
Codec ID                    : 2000
Duration                    : 1 h 58 min
Bit rate mode               : Constant
Bit rate                    : 192 kb/s
Channel(s)                  : 2 channels
Channel positions           : Front: L R
Sampling rate               : 48.0 kHz
Frame rate                  : 31.250 FPS (1536 SPF)
Bit depth                   : 16 bits
Compression mode            : Lossy
Stream size                 : 163 MiB (11%)
Alignment                   : Split accross interleaves
Interleave, duration        : 42  ms (1.00 video frame)
Interleave, preload duratio : 500  ms
Title                       : UKR DUB [Postmodern, iTunes]
Service kind                : Complete Main
Ще трохи скріншотів:
Джерело:


 Трекер:    Зареєстрований   

Завантажити / скачати фільм українською



відео для новачків



 Зареєстрований:   2018-01-22 13:51
 Розмір:   1.45 GB 
 Оцінка фільму:   9/10 (Голосів: 40)
   
Mellounu_ 
Новенький


З нами з: 16.05.17
Востаннє: 15.10.18
Повідомлень: 1

2018-01-23 21:25  
дякую! але фільм рідкісна гедота..
Anonymous 







2018-01-23 21:27  
Mellounu_ написано:
гЕдота..

аргументи?

tpolit 
VIP


З нами з: 10.01.15
Востаннє: 21.10.18
Повідомлень: 348

2018-01-23 23:34  
Anonymous написано:
аргументи?


Семюел Л. Джексон

klan23 
Частий відвідувач


З нами з: 16.03.12
Востаннє: 30.09.18
Повідомлень: 26

2018-01-24 19:09  
Семюеля не лапати)))!
e700mas 
Новенький


З нами з: 12.01.16
Востаннє: 18.10.18
Повідомлень: 9

2018-01-24 21:23  
tpolit
Ещё повезло, что не Морган Фримэн

varjat 
Свій


З нами з: 27.02.12
Востаннє: 10.02.18
Повідомлень: 73

2018-01-24 22:13  
Фільм класний - дуже гарно все . відгуки ,що гидота залишають гурмани . а чим морган фріман не вгодив?історія про острів,а не про Конга.
tpolit 
VIP


З нами з: 10.01.15
Востаннє: 21.10.18
Повідомлень: 348

2018-01-24 23:41  
e700mas

Це форум без російської мови. Дотримуйся правил, будь-ласка.

Anonymous 







2018-01-25 00:22  
e700mas
Цитата:
2. Правила та обмеження форуму

Всім без винятку заборонено:
2.1 Спілкуватися іншою мовою, аніж літературною українською

White_123 
Свій


З нами з: 15.02.13
Востаннє: 19.10.18
Повідомлень: 96

2018-01-28 23:24  
Фільм страждає деякими проблемами з сюжетом та часом абсолютно нелогічною поведінкою як людей так і тварин. В цілому подивитись можна, спецефекти на рівні, але після перегляду в макітрі навряд чи щось залишится окрім цих самих спецефектів. За гарну картинку 7 балів. Сюжет десь на п'ятірку, не більше.
Dionisios 
Частий відвідувач


З нами з: 29.08.09
Востаннє: 15.10.18
Повідомлень: 30

2018-03-17 21:32  
Фільм спецефектів і на один перегляд.
Ваш часовий пояс: GMT + 2 Години

Нова тема   Відповісти