Конг: Острів черепа / Kong: Skull Island (2017) Remux 1080p Ukr/Eng | Sub Eng

Нові коментарі

Нова тема   Відповісти
Автор Повідомлення
Anonymous 







2018-01-22 11:46  
Конг: Острів черепа / Kong: Skull Island (2017) Remux 1080p Ukr/Eng | Sub Eng

Альтернативний постер


Жанр: фантастика, фентезі, бойовик, пригодницький
Країна: США



Кінокомпанія: Legendary Entertainment, Tencent Pictures, Warner Bros
Режисер: Джордан Вот-Робертс / Jordan Vogt-Roberts
Актори: Том Гіддлстон / Tom Hiddleston, Брі Ларсон / Brie Larson, Семюел Л. Джексон / Samuel L. Jackson, Джон Сі Рейллі / John C. Reilly, Джон Ґудмен / John Goodman, Корі Гоукінс / Corey Hawkins, Джон Ортіц / John Ortiz, Тянь Цзин / Tian Jing, Тобі Кеббелл / Toby Kebbell, Ші Вігхем / Shea Whigham та інші

Сюжет:
1971 рік. У Тихому океані знаходиться острів Черепа, де наука зустрічається з міфом. Колись саме там був знайдений славетний Кінг-Конг. Капітан Джеймс Конрад стоїть на чолі експедиції в пошуках зниклого брата і якоїсь дивної субстанції на цей таємничий острів. Але люди прийшли зі зброєю, а таким гостям ніхто не радий. Експедиція опиняється в джунглях, де вони зустрічають інших людей. Від їхнього лідера Марлоу вони дізнаються, що Кінг-Конг – не єдине і далеко не найнебезпечніше створіння на острові. Небезпека повсюди.
Офіційні українські промо та трейлери:








Рейтинг MPAA: PG-13 - дітям до 13 років перегляд не бажаний
Вікова категорія: 12+
Тривалість: 01:58:23
Якість: Remux
Відео:
кодек:
розмір кадру: 1920 х 1080
бітрейт: 24085 кб/с

Аудіо # 1:
мова: українська
переклад: професійний дубльований | Postmodern
кодек: 2.0 [стерео]
бітрейт: 192 кб/с
Інформація про дубляж
Режисер дубляжу: Павло Скороходько
Переклад: Олег Колесніков
Звукорежисер: Андрій Жолуденко
Звукорежисер перезапису: Дмитро Мялковський
Ролі дублювали: Дмитро Терещук, Андрій Альохін, Юлія Перенчук, Борис Георгієвський, Михайло Федорченко, Павло Лі, Дмитро Бузинський, Олександр Ігнатуша, Володимир Кокотунов, Дмитро Вікулов, Дмитро Сова та інші.

Фільм дубльовано компанією Postmodern
Аудіо # 2:
мова: англійська
переклад: оригінал
кодек: -HD MA 5.1
бітрейт: 2360 кб/с

Субтитри #1:
мова: українська (форсовані)
тип: програмні (м'які)
формат: *.srt

Субтитри #2-3:
мова: англійська (повні, SDH)
тип: програмні (м'які)
формат: *.srt

Збережено оригінальні розділи, як на Blu-ray
Info
Код:
Complete name               : Kong. Skull Island (2017) [Ukr,Eng sub.Eng] Remux 1080p [Hurtom].
Format                      :
Format version              : Version 4 / Version 2
File size                   : 21.8 GiB
Duration                    : 1 h 58 min
Overall bit rate mode       : Variable
Overall bit rate            : 26.4 Mb/s
Movie name                  : Конг: Острів черепа / Kong: Skull Island (2017) [Ukr,Eng sub.Eng] Remux 1080p [Hurtom]
Released date               : 2017
Cover                       : Yes
Comment                     : http://www.imdb.com/title/tt3731562/
Attachments                 : cover.jpg
ARTIST                      : Том Гіддлстон / Tom Hiddleston, Брі Ларсон / Brie Larson, Семюел Л. Джексон / Samuel L. Jackson, Джон Сі Рейллі / John C. Reilly, Джон Ґудмен / John Goodman, Корі Гоукінс / Corey Hawkins, Джон Ортіц / John Ortiz, Тянь Цзин / Tian Jing, Тобі Кеббелл / Toby Kebbell, Ші Вігхем / Shea Whigham та інші
DIRECTOR                    : Джордан Вот-Робертс / Jordan Vogt-Roberts
GENRE                       : фантастика, фентезі, бойовик, пригодницький
SYNOPSIS                    : 1971 рік. У Тихому океані знаходиться острів Черепа, де наука зустрічається з міфом. Колись саме там був знайдений славетний Кінг-Конг. Капітан Джеймс Конрад стоїть на чолі експедиції в пошуках зниклого брата і якоїсь дивної субстанції на цей таємничий острів. Але люди прийшли зі зброєю, а таким гостям ніхто не радий. Експедиція опиняється в джунглях, де вони зустрічають інших людей. Від їхнього лідера Марлоу вони дізнаються, що Кінг-Конг – не єдине і далеко не найнебезпечніше створіння на острові. Небезпека повсюди.
Url                         : https://toloka.to/t86755

Video
ID                          : 1
Format                      : AVC
Format/Info                 : Advanced Video Codec
Format profile              : [email protected]
Format settings             : CABAC / 4 Ref Frames
Format settings, CABAC      : Yes
Format settings, ReFrames   : 4 frames
Codec ID                    : V_MPEG4/ISO/AVC
Duration                    : 1 h 58 min
Bit rate mode               : Variable
Bit rate                    : 23.8 Mb/s
Maximum bit rate            : 28.0 Mb/s
Width                       : 1 920 pixels
Height                      : 1 080 pixels
Display aspect ratio        : 16:9
Frame rate mode             : Constant
Frame rate                  : 23.976 (24000/1001) FPS
Color space                 : YUV
Chroma subsampling          : 4:2:0
Bit depth                   : 8 bits
Scan type                   : Progressive
Bits/(Pixel*Frame)          : 0.479
Stream size                 : 19.7 GiB (90%)
Title                       : Конг: Острів черепа / Kong: Skull Island (2017) Remux 1080p [BD EUR]
Language                    : English
Default                     : Yes
Forced                      : No

Audio #1
ID                          : 2
Format                      : AC-3
Format/Info                 : Audio Coding 3
Codec ID                    : A_AC3
Duration                    : 1 h 58 min
Bit rate mode               : Constant
Bit rate                    : 192 kb/s
Channel(s)                  : 2 channels
Channel positions           : Front: L R
Sampling rate               : 48.0 kHz
Frame rate                  : 31.250 FPS (1536 SPF)
Bit depth                   : 16 bits
Compression mode            : Lossy
Stream size                 : 163 MiB (1%)
Title                       : DUB [Postmodern, iTunes] 2.0 192 kbps
Language                    : Ukrainian
Service kind                : Complete Main
Default                     : Yes
Forced                      : Yes

Audio #2
ID                          : 3
Format                      :
Format/Info                 : Digital Theater Systems
Format profile              : MA / Core
Codec ID                    : A_DTS
Duration                    : 1 h 58 min
Bit rate mode               : Variable / Constant
Bit rate                    : 2 360 kb/s / 1 509 kb/s
Channel(s)                  : 6 channels
Channel positions           : Front: L C R, Side: L R, LFE
Sampling rate               : 48.0 kHz
Frame rate                  : 93.750 FPS (512 SPF)
Bit depth                   : 16 bits
Compression mode            : Lossless / Lossy
Stream size                 : 1.95 GiB (9%)
Title                       : Original, -HD MA 5.1 2360 Kbps
Language                    : English
Default                     : No
Forced                      : No

Text #1
ID                          : 4
Format                      : UTF-8
Codec ID                    : S_TEXT/UTF8
Codec ID/Info               : UTF-8 Plain Text
Duration                    : 1 h 57 min
Bit rate                    : 3 b/s
Count of elements           : 61
Stream size                 : 2.72 KiB (0%)
Title                       : Ukr forced
Language                    : Ukrainian
Default                     : Yes
Forced                      : Yes

Text #2
ID                          : 5
Format                      : UTF-8
Codec ID                    : S_TEXT/UTF8
Codec ID/Info               : UTF-8 Plain Text
Duration                    : 1 h 54 min
Bit rate                    : 46 b/s
Count of elements           : 974
Stream size                 : 39.0 KiB (0%)
Title                       : Eng Full
Language                    : English
Default                     : No
Forced                      : No

Text #3
ID                          : 6
Format                      : UTF-8
Codec ID                    : S_TEXT/UTF8
Codec ID/Info               : UTF-8 Plain Text
Duration                    : 1 h 58 min
Bit rate                    : 50 b/s
Count of elements           : 1530
Stream size                 : 43.7 KiB (0%)
Title                       : Eng SDH
Language                    : English
Default                     : No
Forced                      : No

Menu
00:00:00.000                : en:Chapter 01
00:08:54.742                : en:Chapter 02
00:19:51.773                : en:Chapter 03
00:30:01.132                : en:Chapter 04
00:40:00.106                : en:Chapter 05
00:50:13.260                : en:Chapter 06
01:00:49.729                : en:Chapter 07
01:10:29.600                : en:Chapter 08
01:18:05.889                : en:Chapter 09
01:30:12.657                : en:Chapter 10
01:39:09.026                : en:Chapter 11
01:47:05.836                : en:Chapter 12
01:58:23.179                : en:Chapter 13


Джерело: & &


Золотий реліз (завантажене не впливає на рейтинг)
 Трекер:    Зареєстрований   

Завантажити / скачати фільм українською



відео для новачків



 Зареєстрований:   2018-01-22 14:36
 Розмір:   21.82 GB 
 Оцінка фільму:   9.4/10 (Голосів: 10)
   
ВАВУНЯ 
Поважний учасник


З нами з: 30.06.15
Востаннє: 14.12.18
Повідомлень: 231

2018-01-22 15:55  
кращий звук буде?
дякую.

Anonymous 







2018-01-22 15:57  
ВАВУНЯ, https://toloka.to/t78349

Додано через 27 секунд:

Цитата:
BluRay - 0%;
DVD - 0%;

Ваш часовий пояс: GMT + 2 Години

Нова тема   Відповісти