Ой, матінко / Baby Mama (2008) AVC Ukr/Eng

Нові коментарі

Нова тема   Відповісти
Автор Повідомлення
Anonymous 







2018-01-22 12:32  
Ой, матінко / Baby Mama (2008) AVC Ukr/Eng



Жанр: комедія, романтичний
Країна: США



Кінокомпанія: Michaels-Goldwyn, Relativity Media
Режисер: Майкл МакКаллерс
Актори: Тіна Феї, Емі Пехлєр, Грег Кіннер, Романі Малко, Декс Шепард, Мойра Тірні, Холленд Тейлор, Сігурні Уівер, Сіобен Феллон

Сюжет:
Бізнес-леді Кейт намагається вирішити одвічну проблему ділових жінок - завести дитину, не втративши при цьому можливості продовжити успішну кар'єру. Ретельно все зваживши і обдумавши, Кейт звертається до послуг агентства сурогатних матерів ...


Тривалість: 01:38:33
Якість:
Відео:
кодек:
розмір кадру: 1024x554
бітрейт: 1873 кб/с

Аудіо # 1:
мова: українська
переклад: багатоголосий закадровий
кодек: 2.0
бітрейт: 192 кб/с

Джерело озвучення:


Аудіо # 2:
мова: англійська
переклад: оригінал
кодек: 2.0
бітрейт: 192 кб/с
Скріншоти






МедіаІнфо
Complete name : E:\Baby Mama(2008)AVC[Hurtom].
Format :
Format version : Version 4 / Version 2
File size : 1.55 GiB
Duration : 1 h 38 min
Overall bit rate : 2 259 kb/s
Encoded date : UTC 2018-01-22 09:13:56
Writing application : v8.8.0 ('Wind at my back') 64bit
Writing library : libebml v1.3.3 + v1.4.4

Video
ID : 1
Format : AVC
Format/Info : Advanced Video Codec
Format profile : [email protected]
Format settings : CABAC / 5 Ref Frames
Format settings, CABAC : Yes
Format settings, ReFrames : 5 frames
Codec ID : V_MPEG4/ISO/AVC
Duration : 1 h 38 min
Bit rate : 1 873 kb/s
Width : 1 024 pixels
Height : 554 pixels
Display aspect ratio : 1.85:1
Frame rate mode : Constant
Frame rate : 23.976 (24000/1001) FPS
Color space : YUV
Chroma subsampling : 4:2:0
Bit depth : 8 bits
Scan type : Progressive
Bits/(Pixel*Frame) : 0.138
Stream size : 1.29 GiB (83%)
Writing library : core 146 r2555 0c21480
Encoding settings : cabac=1 / ref=5 / deblock=1:-1:-1 / analyse=0x3:0x113 / me=umh / subme=8 / psy=1 / psy_rd=1.00:0.15 / mixed_ref=1 / me_range=16 / chroma_me=1 / trellis=1 / 8x8dct=1 / cqm=0 / deadzone=21,11 / fast_pskip=1 / chroma_qp_offset=-3 / threads=3 / lookahead_threads=1 / sliced_threads=0 / nr=0 / decimate=1 / interlaced=0 / bluray_compat=0 / constrained_intra=0 / bframes=3 / b_pyramid=2 / b_adapt=2 / b_bias=0 / direct=3 / weightb=1 / open_gop=0 / weightp=2 / keyint=250 / keyint_min=23 / scenecut=40 / intra_refresh=0 / rc_lookahead=50 / rc=crf / mbtree=1 / crf=19.0 / qcomp=0.60 / qpmin=0 / qpmax=69 / qpstep=4 / ip_ratio=1.40 / aq=1:1.00
Language : English
Default : Yes
Forced : No

Audio #1
ID : 2
Format : AC-3
Format/Info : Audio Coding 3
Codec ID : A_AC3
Duration : 1 h 38 min
Bit rate mode : Constant
Bit rate : 192 kb/s
Channel(s) : 2 channels
Channel positions : Front: L R
Sampling rate : 48.0 kHz
Frame rate : 31.250 FPS (1536 SPF)
Bit depth : 16 bits
Compression mode : Lossy
Delay relative to video : 1 ms
Stream size : 135 MiB (8%)
Title : Багатоголосий закадровий[Україна]
Language : Ukrainian
Service kind : Complete Main
Default : Yes
Forced : Yes

Audio #2
ID : 3
Format : AC-3
Format/Info : Audio Coding 3
Codec ID : A_AC3
Duration : 1 h 38 min
Bit rate mode : Constant
Bit rate : 192 kb/s
Channel(s) : 2 channels
Channel positions : Front: L R
Sampling rate : 48.0 kHz
Frame rate : 31.250 FPS (1536 SPF)
Bit depth : 16 bits
Compression mode : Lossy
Delay relative to video : -209 ms
Stream size : 135 MiB (8%)
Title : Оригінал
Language : English
Service kind : Complete Main
Default : No
Forced : No
Джерело:
Особиста оцінка: 8 - мені сподобалося
Подяки п. MAKAPOHHIK за запис звуку, а п. AngryBirdsUA за зведення.


 Трекер:    Зареєстрований   

Завантажити / скачати фільм українською



відео для новачків



 Зареєстрований:   2018-01-22 12:32
 Розмір:   1.55 GB 
 Оцінка фільму:   9.2/10 (Голосів: 13)
   
Інші релізи
   Ой, матінко / Baby Mama (2008) AngryBirdsUA  2 / 0   1.33 GB   2013-06-12 19:09 
Infoserfer 
Свій


З нами з: 31.10.09
Востаннє: 05.07.20
Повідомлень: 132

2020-06-21 14:14  
Середня стрічка, актори гарні, сюжет невигадливий, сприймається легко, можна разок глянути, під настрій. Але комедії малувато, тому 6/10.
Ваш часовий пояс: GMT + 2 Години

Нова тема   Відповісти