Конг: Острів черепа / Kong: Skull Island (2017) Ukr/Eng

Нові коментарі

Нова тема   Відповісти
Автор Повідомлення
Anonymous 







2018-01-22 11:59  
Конг: Острів черепа / Kong: Skull Island (2017) Ukr/Eng

Альтернативний постер


Жанр: фантастика, фентезі, бойовик, пригодницький
Країна: США



Кінокомпанія: Legendary Entertainment, Tencent Pictures, Warner Bros
Режисер: Джордан Вот-Робертс / Jordan Vogt-Roberts
Актори: Том Гіддлстон / Tom Hiddleston, Брі Ларсон / Brie Larson, Семюел Л. Джексон / Samuel L. Jackson, Джон Сі Рейллі / John C. Reilly, Джон Ґудмен / John Goodman, Корі Гоукінс / Corey Hawkins, Джон Ортіц / John Ortiz, Тянь Цзин / Tian Jing, Тобі Кеббелл / Toby Kebbell, Ші Вігхем / Shea Whigham та інші

Сюжет:
1971 рік. У Тихому океані знаходиться острів Черепа, де наука зустрічається з міфом. Колись саме там був знайдений славетний Кінг-Конг. Капітан Джеймс Конрад стоїть на чолі експедиції в пошуках зниклого брата і якоїсь дивної субстанції на цей таємничий острів. Але люди прийшли зі зброєю, а таким гостям ніхто не радий. Експедиція опиняється в джунглях, де вони зустрічають інших людей. Від їхнього лідера Марлоу вони дізнаються, що Кінг-Конг – не єдине і далеко не найнебезпечніше створіння на острові. Небезпека повсюди.
Офіційні українські промо та трейлери:








Рейтинг MPAA: PG-13 - дітям до 13 років перегляд не бажаний
Вікова категорія: 12+
Тривалість: 01:58:23
Якість: [Hurtom, джерело - Blu-ray]
Відео:
кодек:
розмір кадру: 720 х 304
бітрейт: 1982 кб/с

Аудіо # 1:
мова: українська
переклад: професійний дубльований | Postmodern
кодек: 2.0 [стерео]
бітрейт: 192 кб/с
Інформація про дубляж
Режисер дубляжу: Павло Скороходько
Переклад: Олег Колесніков
Звукорежисер: Андрій Жолуденко
Звукорежисер перезапису: Дмитро Мялковський
Ролі дублювали: Дмитро Терещук, Андрій Альохін, Юлія Перенчук, Борис Георгієвський, Михайло Федорченко, Павло Лі, Дмитро Бузинський, Олександр Ігнатуша, Володимир Кокотунов, Дмитро Вікулов, Дмитро Сова та інші.

Фільм дубльовано компанією Postmodern
Аудіо # 2:
мова: англійська
переклад: оригінал
кодек: 5.1
бітрейт: 448 кб/с

Субтитри:
мова: українська (форсовані)
тип: програмні (м'які)
формат: *.srt
Info
Код:
General
Complete name               : Kong.Skull Island (2017) [Ukr,Eng] [Hurtom].avi
Format                      : AVI
Format/Info                 : Audio Video Interleave
Format profile              : OpenDML
File size                   : 2.18 GiB
Duration                    : 1 h 58 min
Overall bit rate            : 2 640 kb/s
Movie name                  : Конг: Острів черепа / Kong: Skull Island (2017) Ukr/Eng [Hurtom]
Genre                       : фантастика, фентезі, бойовик, пригодницький
Writing application         : VirtualDubModUkr 1.5.10.2 (build 2542/release)
Writing library             : VirtualDubMod build 2542/release
Comment                     : https://toloka.to/t86751

Video
ID                          : 0
Format                      : MPEG-4 Visual
Format profile              : Advanced [email protected]
Format settings             : BVOP1
Format settings, BVOP       : 1
Format settings, QPel       : No
Format settings, GMC        : No warppoints
Format settings, Matrix     : Default (MPEG)
Codec ID                    :
Codec ID/Hint               :
Duration                    : 1 h 58 min
Bit rate                    : 1 982 kb/s
Width                       : 720 pixels
Height                      : 304 pixels
Display aspect ratio        : 2.35:1
Frame rate                  : 23.976 (24000/1001) FPS
Color space                 : YUV
Chroma subsampling          : 4:2:0
Bit depth                   : 8 bits
Scan type                   : Progressive
Compression mode            : Lossy
Bits/(Pixel*Frame)          : 0.378
Stream size                 : 1.64 GiB (75%)
Writing library             : 67

Audio #1
ID                          : 1
Format                      : AC-3
Format/Info                 : Audio Coding 3
Codec ID                    : 2000
Duration                    : 1 h 58 min
Bit rate mode               : Constant
Bit rate                    : 192 kb/s
Channel(s)                  : 2 channels
Channel positions           : Front: L R
Sampling rate               : 48.0 kHz
Frame rate                  : 31.250 FPS (1536 SPF)
Bit depth                   : 16 bits
Compression mode            : Lossy
Stream size                 : 163 MiB (7%)
Alignment                   : Split accross interleaves
Interleave, duration        : 42  ms (1.00 video frame)
Interleave, preload duratio : 500  ms
Title                       : UKR DUB [Postmodern, iTunes]
Service kind                : Complete Main

Audio #2
ID                          : 2
Format                      : AC-3
Format/Info                 : Audio Coding 3
Codec ID                    : 2000
Duration                    : 1 h 58 min
Bit rate mode               : Constant
Bit rate                    : 448 kb/s
Channel(s)                  : 6 channels
Channel positions           : Front: L C R, Side: L R, LFE
Sampling rate               : 48.0 kHz
Frame rate                  : 31.250 FPS (1536 SPF)
Bit depth                   : 16 bits
Compression mode            : Lossy
Stream size                 : 379 MiB (17%)
Alignment                   : Split accross interleaves
Interleave, duration        : 42  ms (1.00 video frame)
Interleave, preload duratio : 500  ms
Title                       : ENG Original
Service kind                : Complete Main
Ще трохи скріншотів:
Джерело:


 Трекер:    Зареєстрований   

Завантажити / скачати фільм українською



відео для новачків



 Зареєстрований:   2018-01-22 12:42
 Розмір:   2.18 GB 
 Оцінка фільму:   8.9/10 (Голосів: 25)
   
Pohikerd 
Свій


З нами з: 01.08.15
Востаннє: 16.09.18
Повідомлень: 53

2018-01-26 20:27  
Дякую, надіюсь тут є переклад в самому кінці. А то ще Вебку дивився, то там не було.
Anonymous 







2018-01-26 20:46  
Pohikerd написано:
надіюсь тут є переклад в самому кінці. А то ще Вебку дивився, то там не було.

так, тут повний дубляж, в т.ч. сцени після титрів.

mzl 
Свій


З нами з: 19.12.15
Востаннє: 15.10.18
Повідомлень: 55

2018-02-08 06:25  
фільм для дітей середнього шкільного віку
Blanove 
Свій


З нами з: 01.05.15
Востаннє: 06.10.18
Повідомлень: 95

2018-06-27 18:09  
А що за фіча в кінці? Типу Годзілла і цей Конг з одного сюжету? І які ж події перші Конга чи Годзілли 2014? Ще цікаво, чому це Конг буде битися з Годзіллою. В будь-якому разі Гадзя сильніший Кога. Конг довго мнявся з тими тварюками на острові, а Гадзя розімняв би їх на раз.
Graviller123 
Частий відвідувач


З нами з: 26.08.15
Востаннє: 21.09.18
Повідомлень: 41

2018-07-29 22:09  
Blanove написано:
А що за фіча в кінці? Типу Годзілла і цей Конг з одного сюжету? І які ж події перші Конга чи Годзілли 2014? Ще цікаво, чому це Конг буде битися з Годзіллою. В будь-якому разі Гадзя сильніший Кога. Конг довго мнявся з тими тварюками на острові, а Гадзя розімняв би їх на раз.

Ну вроді події КОНГ'а спочатку йдуть, а потім вже події Ґодзілли 2014. Наче так.

Ваш часовий пояс: GMT + 2 Години

Нова тема   Відповісти