Ґруффало / The Gruffalo (2009) Remux 1080p Ukr/Eng | Sub Eng

Нові коментарі

Нова тема   Відповісти
Автор Повідомлення
staf777 
Відео Гуртом - підтримка та поширення
Відео Гуртом - підтримка та поширення


З нами з: 16.11.16
Востаннє: 05.03.21
Повідомлень: 5105

2018-01-21 19:26  
Ґруффало / The Gruffalo (2009) Remux 1080p Ukr/Eng | Sub Eng

Ґруффало / The Gruffalo (2009) Remux 1080p Ukr/Eng | Sub Eng

Оригінальний постер

Ґруффало / The Gruffalo (2009) Remux 1080p Ukr/Eng | Sub Eng
Жанр: сімейний, казка
Країна: Великобританія



Режисер: Джейкоб Шух
Автор оригінальної казки: Джулія Дональдсон
Опис:
Екранізація книги-бестселлера Джулії Дональдсон про маленького Миша, який, розповідаючи про неіснуюче чудовисько Ґруффало, перехитрив голодного Лиса, простесенького Сича та болотного Змія.


Тривалість: 00:28:24
Якість:
Відео: Remux 1080p
кодек:
розмір кадру: 1920x1080
бітрейт: 29.9 Mб/с

Аудіо # 1:
мова: українська
переклад: багатоголосий закадровий
кодек: 5.1
бітрейт: 640 кб/с

Аудіо # 2:
мова: англійська
переклад: оригінал
кодек: -HD-MA 5.1
бітрейт: 4181 кб/с

Субтитри:
мова: англійська
тип: програмні (м'які)
формат: *.srt
Info
General
Unique ID : 246244910498437677906917134472518910707 (0xB9410B7007A3275C9A9212BC57C942F3)
Complete name : P:\HD українською » Мультфільми в HD\The Gruffalo (2009) Remux 1080p [Ukr][Eng] [Sub Eng][Hurtom].
Format :
Format version : Version 4 / Version 2
File size : 6.90 GiB
Duration : 28 min 24 s
Overall bit rate mode : Variable
Overall bit rate : 34.8 Mb/s
Movie name : The Gruffalo (2009) Remux 1080p Ukr/Eng | Sub Eng
Encoded date : UTC 2018-01-21 17:00:21
Writing application : v9.8.0 ('Kuglblids') 64bit
Writing library : libebml v1.3.4 + v1.4.5

Video
ID : 1
Format : AVC
Format/Info : Advanced Video Codec
Format profile : [email protected]
Format settings, CABAC : Yes
Format settings, ReFrames : 4 frames
Codec ID : V_MPEG4/ISO/AVC
Duration : 28 min 24 s
Bit rate mode : Variable
Bit rate : 29.9 Mb/s
Maximum bit rate : 37.0 Mb/s
Width : 1 920 pixels
Height : 1 080 pixels
Display aspect ratio : 16:9
Frame rate mode : Constant
Frame rate : 23.976 (24000/1001) FPS
Color space : YUV
Chroma subsampling : 4:2:0
Bit depth : 8 bits
Scan type : Progressive
Bits/(Pixel*Frame) : 0.602
Stream size : 5.94 GiB (86%)
Title : The Gruffalo (2009)
Language : German
Default : Yes
Forced : No
Color range : Limited
Color primaries : BT.709
Transfer characteristics : BT.709
Matrix coefficients : BT.709

Audio #1
ID : 2
Format : AC-3
Format/Info : Audio Coding 3
Mode extension : CM (complete main)
Format settings, Endianness : Big
Codec ID : A_AC3
Duration : 28 min 24 s
Bit rate mode : Constant
Bit rate : 640 kb/s
Channel(s) : 6 channels
Channel positions : Front: L C R, Side: L R, LFE
Sampling rate : 48.0 kHz
Frame rate : 31.250 FPS (1536 spf)
Bit depth : 16 bits
Compression mode : Lossy
Stream size : 130 MiB (2%)
Title : багатоголосий закадровий
Language : Ukrainian
Default : Yes
Forced : Yes

Audio #2
ID : 3
Format :
Format/Info : Digital Theater Systems
Format profile : MA / Core
Mode : 16
Format settings, Endianness : Big
Codec ID : A_DTS
Duration : 28 min 24 s
Bit rate mode : Variable / Constant
Bit rate : 4 181 kb/s / 1 509 kb/s
Channel(s) : 6 channels
Channel positions : Front: L C R, Side: L R, LFE
Sampling rate : 48.0 kHz
Frame rate : 93.750 FPS (512 spf)
Bit depth : 24 bits
Compression mode : Lossless / Lossy
Stream size : 850 MiB (12%)
Title : ENG
Language : English
Default : No
Forced : No

Text
ID : 4
Format : UTF-8
Codec ID : S_TEXT/UTF8
Codec ID/Info : UTF-8 Plain Text
Duration : 25 min 24 s
Bit rate : 23 b/s
Count of elements : 149
Stream size : 4.38 KiB (0%)
Title : Eng Sub
Language : English
Default : No
Forced : No
Скріншоти



Переклад: Євген Бітюков
Ролі озвучили: Gwean, Maslinka, Deity, Draakul, D_one, Vampir, Ater Сatta
Робота зі звуком: Gwean
Постер: Лунсар


Джерело: &
Особиста оцінка: 0 - не дивився


Золотий реліз (завантажене не впливає на рейтинг)
 Трекер:    Зареєстрований   

Завантажити / скачати мультфільм українською



відео для новачків



 Зареєстрований:   2018-01-21 19:26
 Розмір:   6.9 GB 
 Оцінка мультфільму:   10/10 (Голосів: 7)
   
Інші релізи
   Ґруффало / The Gruffalo (2009) 720р Ukr/Eng FBRUA  4 / 0   662 MB   2016-06-26 22:00 
Enimharas 
Забанено
Забанено


З нами з: 24.01.18
Востаннє: 24.01.18
Повідомлень: 2

2018-01-24 12:26  
I will let it know how it is to let you know.


Бот, видано igor911
Ваш часовий пояс: GMT + 2 Години

Нова тема   Відповісти