Кава й цигарки (Кава та сигарети) / Coffee and Cigarettes (2003) 720р Eng | sub Ukr/Eng

Нові коментарі

Нова тема   Відповісти
Автор Повідомлення
sneakyrobot 
Новенький


З нами з: 18.10.17
Востаннє: 16.03.19
Повідомлень: 6

2018-01-21 18:08  
Кава й цигарки / Coffee and Cigarettes (2003) 720р Eng | sub Ukr/Eng

Кава й цигарки (Кава та сигарети) / Coffee and Cigarettes (2003) 720р Eng | sub Ukr/Eng


Жанр: Комедія, драма
Країна: США



Кінокомпанія: Asmik Ace Entertainment, BIM Distribuzione, Smokescreen Inc.
Режисер: Джим Джармуш
Актори: Біл Мюрей, Том Вейтс, Іґі Поп, Роберто Беніні, Кейт Бланшет

Сюжет:
«Кава й цигарки» (англ. Coffee and Cigarettes)— короткометражний чорно-білий фільм, що містить 11 чудових комедійних новел за участі геніальних акторів, шоуменів і музик, зняті за 17 років творчості винятковим американським режисером Джимом Джармушем («Пес-Привид: Шлях самурая», «Мрець», «Ніч на Землі», «Містичний поїзд»), лідером американського авторського кіно, стали діамантами в його витонченому кінематографічному шедеврі «Кава й цигарки». Попиваючи каву й покурюючи цигарки, герої його незрівнянних історій говорять про все і ні про що, сперечаються до божевілля, кепкують один з одного, роблять глибокодумні висновки й оповідають найнесусвітніші байки, підкреслюючи унікальну здатність режисера — дивитися на повсякденний світ з незвичайної точки зору.


Тривалість: 01:36:21
Якість:
Відео:
кодек:
розмір кадру: 1280 х 720
бітрейт: 3716 кб/с

Аудіо:
мова: англійська
переклад: оригінал
кодек: 2.0
бітрейт: 319 кб/с

Субтитри:
мова: українська
тип: програмні (м'які)
формат: *.srt

Джерело укр. субтитрів: Артем Бебик

Субтитри:
мова: англійська
тип: програмні (м'які)
формат: *.srt
Скріншоти





Info


General
Complete name : D:\torrents\Coffee and Cigarettes 2003 BRRip eng fr sub ukr eng\Coffee and Cigarettes 2003 BRRip eng fr sub ukr eng.mp4
Format : MPEG-4
Format profile : Base Media
Codec ID : isom (isom)
File size : 2.72 GiB
Duration : 1 h 36 min
Overall bit rate mode : Variable
Overall bit rate : 4 042 kb/s
Encoded date : UTC 2012-09-26 18:21:58
Tagged date : UTC 2012-09-26 18:21:58
Writing application : Yamb 2.1.0.0 [http://yamb.unite-video.com]

Video
ID : 1
Format : AVC
Format/Info : Advanced Video Codec
Format profile : [email protected]
Format settings, CABAC : Yes
Format settings, RefFrames : 5 frames
Codec ID : avc1
Codec ID/Info : Advanced Video Coding
Duration : 1 h 36 min
Bit rate : 3 804 kb/s
Maximum bit rate : 22.2 Mb/s
Width : 1 280 pixels
Height : 720 pixels
Display aspect ratio : 16:9
Frame rate mode : Variable
Frame rate : 23.976 (23976/1000) FPS
Minimum frame rate : 19.048 FPS
Maximum frame rate : 25.000 FPS
Color space : YUV
Chroma subsampling : 4:2:0
Bit depth : 8 bits
Scan type : Progressive
Bits/(Pixel*Frame) : 0.172
Stream size : 2.50 GiB (92%)
Writing library : core 112
Encoding settings : cabac=1 / ref=5 / deblock=1:0:0 / analyse=0x3:0x113 / me=hex / subme=7 / psy=1 / psy_rd=1.00:0.00 / mixed_ref=1 / me_range=16 / chroma_me=1 / trellis=1 / 8x8dct=1 / cqm=0 / deadzone=21,11 / fast_pskip=1 / chroma_qp_offset=-2 / threads=3 / sliced_threads=0 / nr=0 / decimate=1 / interlaced=0 / constrained_intra=0 / bframes=5 / b_pyramid=2 / b_adapt=2 / b_bias=0 / direct=1 / weightb=1 / open_gop=0 / weightp=2 / keyint=240 / keyint_min=23 / scenecut=40 / intra_refresh=0 / rc_lookahead=50 / rc=abr / mbtree=1 / bitrate=3804 / ratetol=1.0 / qcomp=0.60 / qpmin=3 / qpmax=51 / qpstep=4 / ip_ratio=1.40 / aq=1:1.00
Encoded date : UTC 2012-09-27 05:22:08
Tagged date : UTC 2012-09-26 18:25:19
Color range : Limited
Color primaries : BT.709
Transfer characteristics : BT.709
Matrix coefficients : BT.709

Audio
ID : 2
Format :
Format/Info : Advanced Audio Codec
Format profile : LC
Codec ID : 40
Duration : 1 h 36 min
Bit rate mode : Variable
Bit rate : 320 kb/s
Maximum bit rate : 426 kb/s
Channel(s) : 2 channels
Channel positions : Front: L R
Sampling rate : 48.0 kHz
Frame rate : 46.875 FPS (1024 SPF)
Compression mode : Lossy
Stream size : 221 MiB (8%)
Language : English
Encoded date : UTC 2012-09-26 18:24:33
Tagged date : UTC 2012-09-26 18:25:19
Особиста оцінка: 8 - мені сподобалося


Золотий реліз (завантажене не впливає на рейтинг)
 Трекер:    Зареєстрований   

Завантажити / скачати фільм українською



відео для новачків



 Зареєстрований:   2018-01-21 18:08
 Розмір:   2.72 GB 
 Оцінка фільму:   8.9/10 (Голосів: 10)
   
Інші релізи
Electroz 
Відео Гуртом - підтримка та поширення
Відео Гуртом - підтримка та поширення


З нами з: 18.09.14
Востаннє: 21.08.19
Повідомлень: 3529

2018-10-23 18:18  

Купа суржику?

sneakyrobot 
Новенький


З нами з: 18.10.17
Востаннє: 16.03.19
Повідомлень: 6

2018-10-31 00:19  
Electroz
Перекладач намагався передати стиль примітивного мовлення персонажів, тому скористався галицькими та наддніпрянськими нелітературними сумішами. У вас на знятці саме галицький суржик.

yurekkk 
Свій


З нами з: 11.12.12
Востаннє: 17.08.19
Повідомлень: 99

2019-01-21 10:36  
Дякую за реліз, от тільки виправте, будь ласка, в описі "брильянти" на "діаманти".
sneakyrobot 
Новенький


З нами з: 18.10.17
Востаннє: 16.03.19
Повідомлень: 6

2019-03-16 09:48  
yurekkk
Дякую. Виправив.

Ваш часовий пояс: GMT + 2 Години

Нова тема   Відповісти