Рівердейл (Cезон 1) / Riverdale (Season 1) (2017) 720p Eng | sub Ukr

Нові коментарі

Нова тема   Відповісти
Автор Повідомлення
pskrm 
Свій


З нами з: 04.03.17
Востаннє: 15.07.20
Повідомлень: 114

2018-01-21 12:43  
Рівердейл (Cезон 1) / Riverdale (Season 1) (2017) 720p Eng | sub Ukr

Рівердейл (Cезон 1) / Riverdale (Season 1) (2017) 720p Eng | sub Ukr
Альтернативні постери:




Автор постерів - DanyZemlyanoy


Жанр: кримінальний, драма, містика
Країна: США



Кінокомпанія: The CW
Режисер: Лі Толанд Кріґер, Роб Сайденґланц, Кевін Родні Салліван
Актори: Кей Джей Апа, Лілі Рейнхарт, Коул Спроус

Сюжет:
Серіал розповідає про старшокласника Арчі та його друзів, які вирішують дослідити невелике містечко Рівердейл,чим далі вони досліджують місто тим більше пізнають його похмурі таємниці.


Тривалість: 00:40:00
Перелік серій

01. Chapter One: The River's Edge / Розділ перший. На березі річки
02. Chapter Two: A Touch of Evil / Розділ другий. Дотик диявола
03 Chapter Three: Body Double / Розділ третій. Близнюк
04. Chapter Four: The Last Picture Show / Розділ четвертий. Останній сеанс
05. Chapter Five: Heart of Darkness / Розділ п'ятий. Серце пітьми
06. Chapter Six: Faster, Pussycats! Kill! Kill! / Розділ шостий. Швидше, "Кішечки"! Давай! Давай!
07. Chapter Seven: In a Lonely Place / Розділ сьомий. Наодинці
08. Chapter Eight: The Outsiders / Розділ восьмий. Вигнанці
09. Chapter Nine: La Grande Illusion / Розділ дев'ятий. Велика ілюзія
10. Chapter Ten: The Lost Weekend / Розділ десятий. Втрачені вихідні
11. Chapter Eleven: To Riverdale and Back Again / Розділ одинадцятий. До Рівердейла і назад
12. Chapter Twelve: Anatomy of a Murder / Розділ дванадцятий. Анатомія вбивства
13. Chapter Thirteen: The Sweet Hereafter / Розділ тринадцятий. Солодке потойбіччя
Якість: ріп з 'а
Відео:
кодек:
розмір кадру: 1280 х 720
бітрейт: 1189 кб/с

Аудіо:
мова: англійська
переклад: оригінал
кодек: 2.0
бітрейт: 165 кб/с

Субтитри:
мова: українська
тип: програмні (м'які)
формат: *.srt

Субтитри :власний переклад
Medianfo

General
Complete name : Riverdale.S01E01.mp4
Format : MPEG-4
Format profile : Base Media
Codec ID : isom (isom/iso2/avc1/mp41)
File size : 455 MiB
Duration : 46 min 42 s
Overall bit rate mode : Variable
Overall bit rate : 1 361 kb/s
Movie name : PSArips.com | Riverdale.S01E01.Chapter.One.The.Rivers.Edge.720p..2CH.x265.
Writing application : Lavf56.40.101

Video
ID : 1
Format : AVC
Format/Info : Advanced Video Codec
Format profile : [email protected]
Format settings, CABAC : Yes
Format settings, RefFrames : 5 frames
Codec ID : avc1
Codec ID/Info : Advanced Video Coding
Duration : 46 min 42 s
Bit rate : 1 189 kb/s
Width : 1 280 pixels
Height : 720 pixels
Display aspect ratio : 16:9
Frame rate mode : Variable
Frame rate : 23.976 FPS
Minimum frame rate : 23.810 FPS
Maximum frame rate : 24.390 FPS
Color space : YUV
Chroma subsampling : 4:2:0
Bit depth : 8 bits
Scan type : Progressive
Bits/(Pixel*Frame) : 0.054
Stream size : 397 MiB (87%)
Writing library : core 148 r2643 5c65704
Encoding settings : cabac=1 / ref=5 / deblock=1:0:0 / analyse=0x1:0x111 / me=umh / subme=8 / psy=1 / psy_rd=1.00:0.00 / mixed_ref=1 / me_range=16 / chroma_me=1 / trellis=1 / 8x8dct=0 / cqm=0 / deadzone=21,11 / fast_pskip=1 / chroma_qp_offset=-2 / threads=3 / lookahead_threads=1 / sliced_threads=0 / nr=0 / decimate=1 / interlaced=0 / bluray_compat=0 / constrained_intra=0 / bframes=3 / b_pyramid=2 / b_adapt=2 / b_bias=0 / direct=3 / weightb=1 / open_gop=0 / weightp=2 / keyint=240 / keyint_min=24 / scenecut=40 / intra_refresh=0 / rc_lookahead=50 / rc=crf / mbtree=1 / crf=20.0 / qcomp=0.60 / qpmin=0 / qpmax=69 / qpstep=4 / vbv_maxrate=20000 / vbv_bufsize=25000 / crf_max=0.0 / nal_hrd=none / filler=0 / ip_ratio=1.40 / aq=1:1.00
Color range : Limited
Color primaries : BT.709
Transfer characteristics : BT.709
Matrix coefficients : BT.709

Audio
ID : 2
Format :
Format/Info : Advanced Audio Codec
Format profile : LC
Codec ID : 40
Duration : 46 min 42 s
Duration_LastFrame : 21 ms
Bit rate mode : Constant
Bit rate : 165 kb/s
Channel(s) : 2 channels
Channel positions : Front: L R
Sampling rate : 48.0 kHz
Frame rate : 46.875 FPS (1024 SPF)
Compression mode : Lossy
Stream size : 55.1 MiB (12%)
Default : Yes
Alternate group : 1

Text
ID : 3
Format : Timed Text
Muxing mode : sbtl
Codec ID : tx3g
Duration : 46 min 42 s
Bit rate mode : Variable
Bit rate : 120 b/s
Stream size : 41.2 KiB (0%)
Language : Ukrainian
Default : Yes
Forced : No
Alternate group : 3
Скріншоти




Джерело:
Особиста оцінка: 8 - мені сподобалося


Золотий реліз (завантажене не впливає на рейтинг)
 Трекер:    Зареєстрований   

Завантажити / скачати серіал українською



відео для новачків



 Зареєстрований:   2018-04-04 21:54
 Розмір:   5.57 GB 
 Оцінка серіалу:   9.8/10 (Голосів: 25)
   
11FrYkT 
Модератор відео


З нами з: 20.02.11
Востаннє: 23.09.20
Повідомлень: 7004

2018-01-21 22:50  
Цитата:
Параметри кодування мають відповідати хоча б me=umh, subme=7, ref=3

igor911 
Модератор відео


З нами з: 18.01.08
Востаннє: 24.09.20
Повідомлень: 15000

2018-01-21 23:18  
pskrm написано:
Movie name : Riverdale.US.S01E01.720p.BluRay.-REWARD

це якийсь гівноріп зі сцен-ріпа, бо параметри ріпа з такою назвою на рарбг зовсім інші
Riverdale.US.S01.720p.BluRay.-REWARD
Video
ID : 1
Format : AVC
Format/Info : Advanced Video Codec
Format profile : [email protected]
Format settings, CABAC : Yes
Format settings, ReFrames : 5 frames
Codec ID : V_MPEG4/ISO/AVC
Duration : 42 min 30 s
Bit rate : 5 843 kb/s
Width : 1 280 pixels
Height : 720 pixels
Display aspect ratio : 16:9
Frame rate mode : Constant
Frame rate : 23.976 (24000/1001) FPS
Color space : YUV
Chroma subsampling : 4:2:0
Bit depth : 8 bits
Scan type : Progressive
Bits/(Pixel*Frame) : 0.264
Stream size : 1.69 GiB (77%)
Writing library : core 152 r2851 ba24899
Encoding settings : cabac=1 / ref=5 / deblock=1:-3:-3 / analyse=0x3:0x113 / me=umh / subme=8 / psy=1 / psy_rd=1.00:0.00 / mixed_ref=1 / me_range=24 / chroma_me=1 / trellis=1 / 8x8dct=1 / cqm=0 / deadzone=21,11 / fast_pskip=1 / chroma_qp_offset=-2 / threads=22 / lookahead_threads=3 / sliced_threads=0 / nr=0 / decimate=1 / interlaced=0 / bluray_compat=0 / constrained_intra=0 / bframes=3 / b_pyramid=2 / b_adapt=2 / b_bias=0 / direct=3 / weightb=1 / open_gop=0 / weightp=2 / keyint=240 / keyint_min=24 / scenecut=40 / intra_refresh=0 / rc_lookahead=50 / rc=2pass / mbtree=1 / bitrate=5843 / ratetol=1.0 / qcomp=0.60 / qpmin=0 / qpmax=69 / qpstep=4 / cplxblur=20.0 / qblur=0.5 / ip_ratio=1.40 / aq=3:0.80
Default : Yes
Forced : No
Statistics Tags Issue : no_variable_data 1970-01-01 00:00:00 / no_variable_data 2010-02-22 21:41:29
FromStats_BitRate : 5843897
FromStats_Duration : 00:42:30.465000000
FromStats_FrameCount : 61150
FromStats_StreamSize : 1863082109

Audio
ID : 2
Format :
Format/Info : Digital Theater Systems
Mode : 16
Format settings, Endianness : Big
Codec ID : A_DTS
Duration : 42 min 30 s
Bit rate mode : Constant
Bit rate : 1 509 kb/s
Channel(s) : 6 channels
Channel positions : Front: L C R, Side: L R, LFE
Sampling rate : 48.0 kHz
Frame rate : 93.750 FPS (512 spf)
Bit depth : 24 bits
Compression mode : Lossy
Stream size : 459 MiB (21%)
Language : English
Default : Yes
Forced : No
Statistics Tags Issue : no_variable_data 1970-01-01 00:00:00 / no_variable_data 2010-02-22 21:41:29
FromStats_BitRate : 1509000
FromStats_Duration : 00:42:30.496000000
FromStats_FrameCount : 239109
FromStats_StreamSize : 481087308

Text #1
ID : 3
Format : UTF-8
Codec ID : S_TEXT/UTF8
Codec ID/Info : UTF-8 Plain Text
Language : English
Default : No
Forced : No
Statistics Tags Issue : no_variable_data 1970-01-01 00:00:00 / no_variable_data 2010-02-22 21:41:29
FromStats_BitRate : 72
FromStats_Duration : 00:41:54.804000000
FromStats_FrameCount : 611
FromStats_StreamSize : 22827

Text #2
ID : 4
Format : UTF-8
Codec ID : S_TEXT/UTF8
Codec ID/Info : UTF-8 Plain Text
Title : SDH
Language : English
Default : No
Forced : No
Statistics Tags Issue : no_variable_data 1970-01-01 00:00:00 / no_variable_data 2010-02-22 21:41:29
FromStats_BitRate : 78
FromStats_Duration : 00:41:54.804000000
FromStats_FrameCount : 660
FromStats_StreamSize : 24677

Menu
00:00:00.000 : en:00:00:00.000
00:09:21.102 : en:00:09:21.102
00:16:13.556 : en:00:16:13.556
00:22:12.915 : en:00:22:12.915
00:29:30.143 : en:00:29:30.143
00:39:40.503 : en:00:39:40.503
00:42:02.520 : en:00:42:02.520
Додано через 1 хвилину 4 секунди:

і вони проходять за правилами.

Додано через 2 хвилини 1 секунду:

а найкраща якість для 720р - Riverdale.S01.720p.BluRay.DD5.1.-TayTO але де взяти - не знаю,

bot 
робот


З нами з: 30.09.07
Востаннє: 26.05.05
Повідомлень: 25582

2018-01-31 20:27  
Тему перенесено з Неоформлене відео до форуму Телесеріали


11FrYkT

Izmail007 
Новенький


З нами з: 25.08.16
Востаннє: 05.09.20
Повідомлень: 1

2018-02-22 13:35  
Доброго дня шановні, чи можна додати до серій і субтитри англійською? Було би дуже круто, і багато людей би висловили свою прихильність авторам. Дякую.
igor911 
Модератор відео


З нами з: 18.01.08
Востаннє: 24.09.20
Повідомлень: 15000

2018-02-22 14:23  
Izmail007, англійські саби можеш брати на opensubtitles.org не чекаючи нікого.
Electroz 
Відео Гуртом - підтримка та поширення
Відео Гуртом - підтримка та поширення


З нами з: 18.09.14
Востаннє: 24.09.20
Повідомлень: 4023

2018-02-22 14:41  
Надав ріпи від TayTO, при наступному оновленні можливо будуть і оригінальні субтитри.
pskrm 
Свій


З нами з: 04.03.17
Востаннє: 15.07.20
Повідомлень: 114

2018-03-05 00:48  
Реліз оновлено!

Додано 8 серію!

P.S. Ще попередній ріп, з наступної серії перейдемо на TayTO.

zoomymba2012 
VIP


З нами з: 08.01.15
Востаннє: 23.09.20
Повідомлень: 687

2018-03-08 21:53  
Цитата:
Субтитри :власний переклад

А на паляниці 11 учасників у проекті приймали участь...

_hellisa 
Свій


З нами з: 26.02.17
Востаннє: 20.09.20
Повідомлень: 126

2018-03-08 21:57  
zoomymba2012
Те, що учасник колись додав кілька версій перекладу до однієї серії, не означає, що усі 11 людей беруть участь у подальшому перекладі серіалу. Тим паче, в кінці серії ми завжди вказуємо користувачів, які працювали над серією, згідно зі статистикою Паляниці, яка з'являється після завантаження з неї готової серії.

pskrm 
Свій


З нами з: 04.03.17
Востаннє: 15.07.20
Повідомлень: 114

2018-03-24 23:04  
Реліз оновлено!

Додано 9 серію!

P.S. У нас новий ріп - TayTO. Приємного перегляду!

pskrm 
Свій


З нами з: 04.03.17
Востаннє: 15.07.20
Повідомлень: 114

2018-04-04 21:56  
Реліз оновлено!
Додано 12-13 серії!

Перший сезон повністю!
Приємного перегляду!

_hellisa 
Свій


З нами з: 26.02.17
Востаннє: 20.09.20
Повідомлень: 126

2018-04-12 14:43  
Другий сезон тут.
kotiko4321 
Свій


З нами з: 18.11.16
Востаннє: 24.09.20
Повідомлень: 80

2018-06-25 15:40  
Що не так з субтирами? Хоч вбийся Playstation 4 їх не бачить. Будь ласка додайте в файли самі субтитри, або якось інакше їх вшивайте бо ні телевізор ні консоль не можуть їх відтворити.
Laila Leleka 
Новенький


З нами з: 10.04.19
Востаннє: 10.09.20
Повідомлень: 5

2019-05-17 12:14  
Народе!!! Класний серіал, дякую, що розмістили його тут! Хтось може підказати, де можна знайти безкоштовні Archie Comics англійською або українською? Підсіла Wide grin
_hellisa 
Свій


З нами з: 26.02.17
Востаннє: 20.09.20
Повідомлень: 126

2019-05-17 12:21  
Дякуємо, що дивитеся нас!

Українською комікси поки що не плануються, англійською можна знайти тут.

Додано через 39 секунд:

Третій сезон тут.

igor911 
Модератор відео


З нами з: 18.01.08
Востаннє: 24.09.20
Повідомлень: 15000

2019-05-17 18:21  
pskrm написано:
720p

тут виявились ріпи з вебріпів
джерело цього ріпу з заголовку файлів, принаймні у перших 8 серій: Riverdale.S01E08.Chapter.Eight.The.Outsiders.720p..2CH.x265.HEVC-PSA
Додано через 1 хвилину 24 секунди:

виправив позначення якості.

Ваш часовий пояс: GMT + 2 Години

Нова тема   Відповісти