Дірк Джентлі (Сезон 1) / Dirk Gently (Season 1) (2010-2012) 720p Ukr/Eng | sub Eng

Нові коментарі

Нова тема   Відповісти
Автор Повідомлення
Anonymous 







2018-01-19 23:20  
Дірк Джентлі (Сезон 1) / Dirk Gently (Season 1) (2010-2012) 720p Ukr/Eng | sub Eng

Дірк Джентлі (Сезон 1) / Dirk Gently (Season 1) (2010-2012) 720p Ukr/Eng | sub Eng


Жанр: комедія, кримінальний, фантастика
Країна: Велика Британія



Кінокомпанія: ITV Studios
Режисер: Говард Овермен (Howard Overman)
Актори: Стівен Менґен (Stephen Mangan), Даррен Бойд (Darren Boyd), Гелен Бексендейл (Helen Baxendale), Джейсон Воткінс (Jason Watkins), Ліза Джексон (Lisa Jackson) та інші

Сюжет:
Ексцентричний приватний детектив Дірк Джентлі у свої розслідуваннях використовує холістичні методи - він вірить, що все у всесвіті взаємопов'язано. Серіал - екранізація іронічного науково-фантастичного роману Дуґласа Адамса.


Тривалість: 1 серія: ~57 хв. (цілком серій: 4)
Перелік серій
0) Pilot
1) Episode #1.1
2) Episode #1.2
3) Episode #1.3
Якість:
Відео:
кодек:
розмір кадру: 1280 х 720
бітрейт: 2465-3479 кб/с

Аудіо # 1:
мова: українська
переклад: багатоголосий закадровий
кодек: 2.0
бітрейт: 192 кб/с

Аудіо # 2:
мова: англійська
переклад: оригінал
кодек: 2.0
бітрейт: 192 кб/с

Джерело озвучення:


Субтитри:
мова: англійська
тип: програмні (м'які)
формат: *.srt
Info
General
Unique ID : 155353555976864093557333110267946188523 (0x74E001ACC16183BC76954451CCABBEEB)
Complete name : F:\Records\ukr\Dirk Gently\Dirk Gently (Season 1) [, 720p, Ukr, Eng]\Dirk.Gently.s01e00..720p.Ukr.Eng.
Format :
Format version : Version 4 / Version 2
File size : 1.54 GiB
Duration : 58 min 24 s
Overall bit rate : 3 765 kb/s
Encoded date : UTC 2018-01-16 19:20:35
Writing application : v20.0.0 ('I Am The Sun') 64-bit
Writing library : libebml v1.3.5 + v1.4.8

Video
ID : 1
Format : AVC
Format/Info : Advanced Video Codec
Format profile : [email protected]
Format settings, CABAC : Yes
Format settings, ReFrames : 4 frames
Codec ID : V_MPEG4/ISO/AVC
Duration : 58 min 24 s
Bit rate : 3 379 kb/s
Width : 1 280 pixels
Height : 720 pixels
Display aspect ratio : 16:9
Frame rate mode : Constant
Frame rate : 25.000 FPS
Color space : YUV
Chroma subsampling : 4:2:0
Bit depth : 8 bits
Scan type : Progressive
Bits/(Pixel*Frame) : 0.147
Stream size : 1.38 GiB (90%)
Writing library : core 105 r1732 2b04482
Encoding settings : cabac=1 / ref=3 / deblock=1:0:0 / analyse=0x3:0x113 / me=hex / subme=6 / psy=1 / psy_rd=1.00:0.00 / mixed_ref=0 / me_range=16 / chroma_me=1 / trellis=1 / 8x8dct=1 / cqm=0 / deadzone=21,11 / fast_pskip=1 / chroma_qp_offset=-2 / threads=18 / sliced_threads=0 / nr=0 / decimate=1 / interlaced=0 / constrained_intra=0 / bframes=3 / b_pyramid=2 / b_adapt=1 / b_bias=0 / direct=1 / weightb=1 / open_gop=0 / weightp=0 / keyint=250 / keyint_min=25 / scenecut=40 / intra_refresh=0 / rc=2pass / mbtree=0 / bitrate=3379 / ratetol=1.0 / qcomp=0.60 / qpmin=10 / qpmax=51 / qpstep=4 / cplxblur=20.0 / qblur=0.5 / ip_ratio=1.40 / pb_ratio=1.30 / aq=1:1.00
Language : English
Default : Yes
Forced : No

Audio #1
ID : 2
Format : AC-3
Format/Info : Audio Coding 3
Format settings, Endianness : Big
Codec ID : A_AC3
Duration : 58 min 24 s
Bit rate mode : Constant
Bit rate : 192 kb/s
Channel(s) : 2 channels
Channel positions : Front: L R
Sampling rate : 48.0 kHz
Frame rate : 31.250 FPS (1536 spf)
Bit depth : 16 bits
Compression mode : Lossy
Stream size : 80.2 MiB (5%)
Language : Ukrainian
Service kind : Complete Main
Default : Yes
Forced : No

Audio #2
ID : 3
Format : AC-3
Format/Info : Audio Coding 3
Format settings, Endianness : Big
Codec ID : A_AC3
Duration : 58 min 24 s
Bit rate mode : Constant
Bit rate : 192 kb/s
Channel(s) : 6 channels
Channel positions : Front: L C R, Side: L R, LFE
Sampling rate : 48.0 kHz
Frame rate : 31.250 FPS (1536 spf)
Bit depth : 16 bits
Compression mode : Lossy
Stream size : 80.2 MiB (5%)
Language : English
Service kind : Complete Main
Default : No
Forced : No

Text
ID : 4
Format : UTF-8
Codec ID : S_TEXT/UTF8
Codec ID/Info : UTF-8 Plain Text
Duration : 57 min 49 s
Bit rate : 72 b/s
Count of elements : 816
Stream size : 30.8 KiB (0%)
Language : English
Default : No
Forced : No
Скріншоти
Джерело: &
Особиста оцінка: 6 - дурня, хоч і весела


Бронзовий реліз (на рейтинг впливає 75% завантаженого)
 Трекер:    Зареєстрований   

Завантажити / скачати серіал українською



відео для новачків



 Зареєстрований:   2018-01-19 23:20
 Розмір:   4.97 GB 
 Оцінка серіалу:   9.8/10 (Голосів: 17)
   
koreolis 
Новенький


З нами з: 02.11.13
Востаннє: 04.12.20
Повідомлень: 2

2018-01-20 15:09  
Дякую, але у нас вже є один Дірк Джентлі та іншого нам не потрібно)
IF56 
Новенький


З нами з: 02.01.17
Востаннє: 04.12.20
Повідомлень: 4

2018-01-21 00:21  
Дякую.
ilitbr 
VIP


З нами з: 25.05.09
Востаннє: 04.12.20
Повідомлень: 469

2018-01-21 10:21  
Велике дякую!!!
leicheman 
Відео Гуртом - фільмокрай
Відео Гуртом - фільмокрай


З нами з: 03.07.14
Востаннє: 05.12.20
Повідомлень: 5709

2018-01-22 22:57  
Хм, досить не погано.
Зовсім інший Дірк ніж у новому серіалі.

alex_kaban 
Новенький


З нами з: 30.04.12
Востаннє: 04.12.20
Повідомлень: 14

2018-01-24 00:22  
Подивився із задоволенням, раджу всім фанам європейського кіно.
Під горнятко чаю пішло дуже добре.
Дякую

mikle-v 
Частий відвідувач


З нами з: 06.12.12
Востаннє: 29.11.20
Повідомлень: 30

2018-03-11 13:35  
Цікавий серіал! Як на мене, то це певний стьоб на останню британську версію "Шерлока Холмса" з Кембербетчем!)))
Tayminna 
Новенький


З нами з: 29.11.16
Востаннє: 15.11.20
Повідомлень: 9

2018-03-19 01:58  
Прекрасний добрий, легкий і дотепний серіал, який передивлялась не один раз в оригіналі. Цікаво буде переглянути в озвучці, дякую!

Наткнулась випадково, прочитала у котромусь коментарі до тоді ще лиш трейлера Дірка Джентлі 2016. Люблю британське кіно, тому зацікавилась і отримала задоволення від перегляду. Також прочитала першу книгу, не можу сказати, що сюжетно серіал близький до першоджерела, але атмосферно - так. Пошановувачам британських серіалів і кіно, Стівена Менґена (якого могли бачити також у "Епізодах") - однозначно рекомендовано. Дуже шкода, що лише один сезон з 4 серій.

Американський серіал (знятий за коміксом начебто), на жаль, мені не зайшов, подивилась лиш 1 сезон. Мабуть, завищені очікування, плюс трішки не та фантастика, яку люблю.
Хто дивився останній і боїться повторів - це абсолютно різні історії з різним настроєм, характерами персонажів.

mikle-v , ні, обидва серіали вийшли у 2010 з розривом у декілька місяців. Це віддалена екранізація книги, у якої більше спільного з "Доктором Хто", ніж із "Шерлоком" )

P.S. Метод дзен-навігації дійсно працює! Wide grin

Ваш часовий пояс: GMT + 2 Години

Нова тема   Відповісти