Геошторм / Geostorm (2017) Remux 1080p Ukr/Eng | Sub Eng

Нові коментарі

Нова тема   Відповісти
Автор Повідомлення
staf777 
Відео Гуртом - підтримка та поширення
Відео Гуртом - підтримка та поширення


З нами з: 16.11.16
Востаннє: 20.05.19
Повідомлень: 2361

2018-01-19 22:12  
Геошторм / Geostorm (2017) Remux 1080p Ukr/Eng | Sub Eng


«Пережити шторм»

Жанр: бойовик, трилер, фантастика
Країна: США



Кінокомпанія: Warner Bros., Electric Entertainment, RatPac-Dune Entertainment, Skydance Productions, Jerry Bruckheimer Films
Режисер: Дін Девлін
Актори: Джерард Батлер, Джим Стьорджес, Еббі Корніш, Ед Гарріс, Енді Ґарсіа, Роберт Шиен, Зазі Бітц, Таліта Бейтман, Деніел Ву, Річард Шифф та інші

Сюжет:
На головного героя фільму Джейка (Джерард Батлер) покладена непроста місія. Він розробляє супутники, що контролюють клімат на планеті. Техніка дала збій і йому потрібно запобігти шторму небувалих масштабів. Стає відомо, що єдина людина, яка здатна змінити програму дії супутників – це Президент Сполучених Штатів.


Тривалість: 01:49:07
Якість: Remux

Відео:
кодек:
розмір кадру: 1920x1080
бітрейт: 29,7 Mб/с

Аудіо # 1:
мова: українська
переклад: професійний дубльований | студія Postmodern
кодек: 2.0
бітрейт: 192 кб/с
Інформація про дубляж
Переклад: Олег Колесніков
Режисер дубляжу: Павло Скороходько
Звукорежисер: Юрій Антонов
Ролі дублювали: Михайло Жонін, Ірина Ткаленко, Наталя Романько-Кисельова, Вероніка Лук'яненко, Олександр Ігнатуша, Анна Соболєва, Олег Стальчук, Михайло Федорченко, Дмитро Бузинський та інші.
Фільм дубльовано студією Postmodern

Аудіо # 2:
мова: англійська
переклад: оригінал
кодек: -HD MA 5.1
бітрейт: 3928 кб/с

Субтитри # 1:
мова: українська (форсовані)
тип: програмні (м'які)
формат: *.srt

Субтитри # 2:
мова: англійська (SDH)
тип: пререндерні
формат: *.pgs
Скріншоти
Info
Код:

General
Unique ID                                : 213219300309342206498002149663289324672 (0xA0688B240AB9A64AA0C0792A60073480)
Complete name                            : P:\HD українською » Фільми в HD\Фантастика\Geostorm (2017) Remux 1080p UkrEng  Sub Eng [Hurtom].
Format                                   :
Format version                           : Version 4 / Version 2
File size                                : 25.8 GiB
Duration                                 : 1 h 49 min
Overall bit rate mode                    : Variable
Overall bit rate                         : 33.9 Mb/s
Movie name                               : Geostorm (2017) Remux 1080p Ukr/Eng | Sub Eng [Hurtom]
Encoded date                             : UTC 2018-01-19 23:31:22
Writing application                      : v9.8.0 ('Kuglblids') 64bit
Writing library                          : libebml v1.3.4 + v1.4.5

Video
ID                                       : 1
Format                                   : AVC
Format/Info                              : Advanced Video Codec
Format profile                           : [email protected]
Format settings, CABAC                   : Yes
Format settings, ReFrames                : 4 frames
Codec ID                                 : V_MPEG4/ISO/AVC
Duration                                 : 1 h 49 min
Bit rate mode                            : Variable
Bit rate                                 : 29.7 Mb/s
Maximum bit rate                         : 33.0 Mb/s
Width                                    : 1 920 pixels
Height                                   : 1 080 pixels
Display aspect ratio                     : 16:9
Frame rate mode                          : Constant
Frame rate                               : 23.976 (24000/1001) FPS
Color space                              : YUV
Chroma subsampling                       : 4:2:0
Bit depth                                : 8 bits
Scan type                                : Progressive
Bits/(Pixel*Frame)                       : 0.598
Stream size                              : 22.6 GiB (88%)
Title                                    : Geostorm (2017)
Default                                  : Yes
Forced                                   : No

Audio #1
ID                                       : 2
Format                                   : AC-3
Format/Info                              : Audio Coding 3
Format profile                           : Dolby Digital
Mode extension                           : CM (complete main)
Format settings, Endianness              : Big
Codec ID                                 : A_AC3
Duration                                 : 1 h 49 min
Bit rate mode                            : Constant
Bit rate                                 : 192 kb/s
Channel(s)                               : 2 channels
Channel positions                        : Front: L R
Sampling rate                            : 48.0 kHz
Frame rate                               : 31.250 FPS (1536 spf)
Bit depth                                : 16 bits
Compression mode                         : Lossy
Stream size                              : 150 MiB (1%)
Title                                    : [UA-DUB][Postmodern]
Language                                 : Ukrainian
Default                                  : Yes
Forced                                   : Yes

Audio #2
ID                                       : 3
Format                                   :
Format/Info                              : Digital Theater Systems
Format profile                           : MA / Core
Mode                                     : 16
Format settings, Endianness              : Big
Codec ID                                 : A_DTS
Duration                                 : 1 h 49 min
Bit rate mode                            : Variable / Constant
Bit rate                                 : 3 928 kb/s / 1 509 kb/s
Channel(s)                               : 6 channels
Channel positions                        : Front: L C R, Side: L R, LFE
Sampling rate                            : 48.0 kHz
Frame rate                               : 93.750 FPS (512 spf)
Bit depth                                : 24 bits
Compression mode                         : Lossless / Lossy
Stream size                              : 2.99 GiB (12%)
Title                                    : -HD MA 5.1
Language                                 : English
Default                                  : No
Forced                                   : No

Text #1
ID                                       : 4
Format                                   : UTF-8
Codec ID                                 : S_TEXT/UTF8
Codec ID/Info                            : UTF-8 Plain Text
Duration                                 : 1 h 40 min
Bit rate                                 : 5 b/s
Count of elements                        : 71
Stream size                              : 3.69 KiB (0%)
Title                                    : (Forced)
Language                                 : Ukrainian
Default                                  : Yes
Forced                                   : Yes

Text #2
ID                                       : 5
Format                                   : PGS
Muxing mode                              : zlib
Codec ID                                 : S_HDMV/PGS
Codec ID/Info                            : Picture based subtitle format used on BDs/HD-DVDs
Duration                                 : 1 h 48 min
Bit rate                                 : 13.4 kb/s
Count of elements                        : 3248
Stream size                              : 10.3 MiB (0%)
Title                                    : English (SDH)
Language                                 : English
Default                                  : No
Forced                                   : No

Джерело: &
Особиста оцінка: 0 - не дивився


Золотий реліз (завантажене не впливає на рейтинг)
 Трекер:    Зареєстрований   

Завантажити / скачати фільм українською



відео для новачків



 Зареєстрований:   2018-01-20 04:18
 Розмір:   25.8 GB 
 Оцінка фільму:   8.9/10 (Голосів: 30)
   
Інші релізи
   Геошторм / Geostorm (2017) 1080p (60 fps) Ukr/Eng | Sub Eng Drool  3 / 0   13 GB   2018-08-23 14:33 
   Геошторм / Geostorm (2017) 1080p [Open Matte] Ukr/Eng | Sub Eng boroznaya  2 / 0   9.17 GB   2018-07-01 08:27 
   Геошторм / Geostorm (2017) Covenant  7 / 0   1.45 GB   2018-01-21 21:04 
   Геошторм / Geostorm (2017) AVC Ukr/Eng | Sub Eng igor911  7 / 0   2.03 GB   2018-01-20 20:34 
   Геошторм / Geostorm (2017) 720p Ukr/Eng | Sub Eng igor911  2 / 0   4.18 GB   2018-01-20 19:26 
   Геошторм / Geostorm (2017) 1080p Ukr/Eng | Sub Eng Electroz  5 / 0   8.13 GB   2018-01-19 17:52 
Mariscia 
Поважний учасник


З нами з: 14.01.16
Востаннє: 10.05.19
Повідомлень: 185

2018-01-19 23:04  
Приберіть другий скріншот, це ж спойлер!

Мені фільм сподобався, я люблю таке дуже. Додали нотку детективної історії, це +.

bot 
робот


З нами з: 30.09.07
Востаннє: 26.05.05
Повідомлень: 21356

2018-01-20 03:40  
Тему перенесено з Анонси релізів до форуму Фільми в HD


staf777

ngxwinger 
Частий відвідувач


З нами з: 19.01.14
Востаннє: 20.05.19
Повідомлень: 35

2018-01-27 18:46  
Фільм дуже навіть нічого, цікаво було переглянути. Точно не гірше, ніж Розлом Сан Адреас, хоча і не дотягує до Післязавтра та 2012.
sergio777p 
Новенький


З нами з: 05.10.16
Востаннє: 10.05.19
Повідомлень: 19

2018-02-04 21:39  
Хоча не погані спецефекти, добре підібрані актори, є своя доля драматизму, події фільму розвиваються досить швидко. Мотиви головного злодія фільму взагалі погано та малозрозуміло розкриті. По суті фільм складається з розгорнутого початку та швидкого фіналу, без основної частини, яка додавала би динаміки до сюжету. Можливо так видавці хотіли заощадити кошти. Шкода. Тоді б фільм вийшов набагато цікавішим. Особиста оцінка 7 балів (максимум) і зовсім не критикую середню оцінку на imdb 5,4 з 10.
fsy777 
Частий відвідувач


З нами з: 16.01.12
Востаннє: 19.05.19
Повідомлень: 37

2018-02-19 10:46  
Фільм був обраний для недільного сімейного перегляду. Особисто сподівалась на щось типу "Післязавтра", але фільм виявився слабуватим. Дуже примітивний сюжет не рятують навіть спецефекти. Хоча саму ідею погодної системи можна було розвинути значно цікавіше. Іmdb 5,4 цілком справедливий.
Uberwinder 
VIP


З нами з: 18.11.16
Востаннє: 20.05.19
Повідомлень: 277

2018-02-25 20:22  
Пореготати з сюжету можна...
Ваш часовий пояс: GMT + 2 Години

Нова тема   Відповісти