Гробниця / The Tomb (1986) 1080i

Нові коментарі

Нова тема   Відповісти
Автор Повідомлення
urij546724 
Відео Гуртом - фільмокрай
Відео Гуртом - фільмокрай


З нами з: 16.03.10
Востаннє: 29.09.20
Повідомлень: 5701

2018-01-19 21:36  
Гробниця / The Tomb (1986) 1080i



Жанр: жахи, фентезі
Країна: США



Кіностудія / кінокомпанія: Trans World Entertainment (TWE)
Режисер: Фред Олен Рей / Fred Olen Ray
Актори: Кемерон Мітчелл (Cameron Mitchell), Джон Керредін (John Carradine), Сібіл Даннінг (Sybil Danning)...

Сюжет:
Грабіжник могил викрадає з невідомої єгипетської усипальниці кілька коштовностей, не припускаючи, що ці артефакти бережуть в собі життя їх власниці - принцеси Нефратіс. Так як амулети потрапляють до Каліфорнії, вона відправляється туди і вбиває професора, який ініціював розграбування могили. Син професора Девід і його подруга Хелен вирішують з'ясувати що ж стоїть за вбивством вченого.


Тривалість: 01:38:24
Якість: 1080i
Відео:
кодек:
розмір кадру: 1920 х 1080
бітрейт: 5728 кб/с
частота кадрів: 25 к/с (fps)

Аудіо #1:
мова: українська
переклад: багатоголосий закадровий
кодек: 2.0
бітрейт: 192 кб/с
запис звуку з каналу: АМС
Media info:
General
ID : 1 (0x1)
Format : MPEG-TS
File size : 3.52 GiB
Duration : 1h 20mn
Overall bit rate mode : Variable
Overall bit rate : 6 230 Kbps
Maximum Overall bit rate : 35.5 Mbps

Video
ID : 4113 (0x1011)
Menu ID : 1 (0x1)
Format : AVC
Format/Info : Advanced Video Codec
Format profile : [email protected]
Format settings, CABAC : Yes
Format settings, ReFrames : 3 frames
Codec ID : 27
Duration : 1h 20mn
Bit rate mode : Variable
Bit rate : 5 728 Kbps
Maximum bit rate : 40.0 Mbps
Width : 1 920 pixels
Height : 1 080 pixels
Display aspect ratio : 16:9
Frame rate : 25.000 fps
Standard : Component
Color space : YUV
Chroma subsampling : 4:2:0
Bit depth : 8 bits
Scan type : Interlaced
Scan order : Top Field First
Bits/(Pixel*Frame) : 0.110
Stream size : 3.24 GiB (92%)
Color primaries : BT.709
Transfer characteristics : BT.709
Matrix coefficients : BT.709

Audio
ID : 4352 (0x1100)
Menu ID : 1 (0x1)
Format : AC-3
Format/Info : Audio Coding 3
Mode extension : CM (complete main)
Format settings, Endianness : Big
Codec ID : 129
Duration : 1h 20mn
Bit rate mode : Constant
Bit rate : 192 Kbps
Channel count : 2 channels
Channel positions : Front: L R
Sampling rate : 48.0 KHz
Bit depth : 16 bits
Compression mode : Lossy
Stream size : 111 MiB (3%)
Language : Ukrainian
Скріншоти:





Трейлер:
Семпл
Джерело 1_________Джерело 2_________Джерело 3_________Джерело 4_________Джерело 5
У випадку, якщо з усіх джерел семпл видалять, прохання повідомити мені у ПРИВАТ


Подяка:

1. Пану Sando7 за запис звуку з ТБ.


Джерело:


Срібний реліз (на рейтинг впливає 50% завантаженого)
 Трекер:    Зареєстрований   

Завантажити / скачати фільм українською



відео для новачків



 Зареєстрований:   2018-01-19 21:36
 Розмір:   3.52 GB 
 Оцінка фільму:   5.5/10 (Голосів: 2)
 Прохання залишати коментарі і не тікати з роздачі.
   
Інші релізи
   Гробниця / The Tomb (1986) Arsenfpu  1 / 0   1.35 GB   2018-01-25 09:27 
gesko 
Новенький


З нами з: 16.02.17
Востаннє: 29.09.20
Повідомлень: 18

2018-01-20 17:34  
Не маючи наміру зневажати чиюсь працю все ж таки спитаю: Якій сенс перекладати такі стрічки?
hetzendorf 
Попереджень: 2
Попереджень: 2 


З нами з: 23.07.15
Востаннє: 29.09.20
Повідомлень: 2876

2018-01-21 02:29  
gesko
Навряд чи тут присутній хтось з представників каналу AMC >_<

Oleksa9 
VIP


З нами з: 17.05.12
Востаннє: 29.09.20
Повідомлень: 412

2019-09-01 12:47  
помістилося -> вмістилося,
чьорт -> дідько,
щьоб -> аби,
з податковой -> з податкової,
доберусь -> дістануся,
палити -> курити
почюв, щьо, втрачяти, якщьо, чюю, щє, нічього, чясу, чюли, чяри, навіщьо, чюв, чі, хочю, чюєш, чєкаю, чєрвня, навчявся, нещьодавно, щєдра, чюдово, щьось, чясто, хочєте, очєвидно, співчюваю, хлопчє, щьодня, скучів, чярівник, недочюваєш, чясом, чяші, захищяло, пощядив

Ваш часовий пояс: GMT + 2 Години

Нова тема   Відповісти