Бразилія. Центральний вокзал / Central do Brasil / Central Station (1998) -AVC Por | sub Ukr/Eng

Нові коментарі

Нова тема   Відповісти
Автор Повідомлення
Леля22 
Забанено
Забанено


З нами з: 22.07.15
Востаннє: 07.08.18
Повідомлень: 1025

2018-01-19 11:12  
Бразилія. Центральний вокзал / Central do Brasil / Central Station (1998) -AVC Por | sub Ukr/Eng

Бразилія. Центральний вокзал / Central do Brasil / Central Station (1998) -AVC Por | sub Ukr/Eng
Зворотній бік обкладинки
Жанр: драма
Країна: Бразилія, Франція



Кінокомпанія: Audiovisual Development Bureau, Ministerio da Cultura, Canal+ та інші.
Режисер: Волтер Саллес (Walter Salles)
Автори сценарію: Маркос Бернстейн (Marcos Bernstein), Жоао Емануел Карнейро (João Emanuel Carneiro), Волтер Саллес (Walter Salles)
Актори: Фернанда Монтенеґру (Fernanda Montenegro), Вінісіус де Олівейра (Vinícius de Oliveira), Маріліа Пера (Marília Pêra), Отон Бастос (Othon Bastos), Сойя Ліра (Soia Lira) та інші.

Сюжет:
Сентиментальне кіно, канва якого – подорож у глиб Бразилії. Сюжет побудовано на історії дружби жінки, яка шукає другого шансу в житті, та хлопчика, котрий після смерті матері шукає свого батька.
Автори отримали натхнення від фільму німецького режисера Віма Вендерса «Аліса у містах».

Тривалість: 01:45:41
Якість: -AVC
Відео:
кодек:
розмір кадру: 1024 х 576
бітрейт: 2398 кб/с
контейнер: avi

Аудіо:
мова: португальська
переклад: оригінал
кодек: MP3 2.0
бітрейт: 256 кб/с

Субтитри # 1:
мова: українська
тип: програмні (м'які)
формат: *.srt

Субтитри # 2:
мова: англійська
тип: програмні (м'які)
формат: *.srt

Переклад (за винятком окремих моментів) не мій. Набір і редагування тексту субтитрів - Леля22
Info
Код:
General
Complete name               : Central do Brasil (Central Station) (1998) [Por; SubUKR,Eng] -AVC.avi
Format                      : AVI
Format/Info                 : Audio Video Interleave
Format profile              : OpenDML
File size                   : 1.96 GiB
Duration                    : 1 h 45 min
Overall bit rate            : 2 657 kb/s
Writing application         : Lavf52.94.0

Video
ID                          : 0
Format                      : AVC
Format/Info                 : Advanced Video Codec
Format profile              : [email protected]
Format settings             : CABAC / 2 Ref Frames
Format settings, CABAC      : Yes
Format settings, Reference  : 2 frames
Codec ID                    : H264
Duration                    : 1 h 45 min
Bit rate                    : 2 398 kb/s
Width                       : 1 024 pixels
Height                      : 576 pixels
Display aspect ratio        : 16:9
Frame rate mode             : Variable
Frame rate                  : 25.000 FPS
Color space                 : YUV
Chroma subsampling          : 4:2:0
Bit depth                   : 8 bits
Scan type                   : Progressive
Bits/(Pixel*Frame)          : 0.163
Stream size                 : 1.76 GiB (90%)
Writing library             : core 112 r1834 a51816a
Encoding settings           : cabac=1 / ref=1 / deblock=1:0:0 / analyse=0x1:0 / me=dia / subme=2 / psy=1 / psy_rd=0.00:0.00 / mixed_ref=0 / me_range=16 / chroma_me=1 / trellis=0 / 8x8dct=0 / cqm=0 / deadzone=21,11 / fast_pskip=1 / chroma_qp_offset=0 / threads=8 / sliced_threads=0 / nr=0 / decimate=1 / interlaced=0 / constrained_intra=0 / bframes=3 / b_pyramid=0 / b_adapt=1 / b_bias=0 / direct=3 / weightb=0 / open_gop=0 / weightp=2 / keyint=250 / keyint_min=25 / scenecut=40 / intra_refresh=0 / rc_lookahead=40 / rc=abr / mbtree=1 / bitrate=2398 / ratetol=1.0 / qcomp=0.60 / qpmin=10 / qpmax=51 / qpstep=4 / ip_ratio=1.41 / aq=1:1.00

Audio
ID                          : 1
Format                      : MPEG Audio
Format version              : Version 1
Format profile              : Layer 3
Format settings             : Joint stereo / MS Stereo
Codec ID                    : 55
Codec ID/Hint               : MP3
Duration                    : 1 h 45 min
Bit rate mode               : Constant
Bit rate                    : 256 kb/s
Channel(s)                  : 2 channels
Sampling rate               : 48.0 kHz
Compression mode            : Lossy
Stream size                 : 193 MiB (10%)
Alignment                   : Aligned on interleaves
Interleave, duration        : 24  ms (0.60 video frame)
Writing library             : LAME3.98.4
Скріншоти









Джерело:


Золотий реліз (завантажене не впливає на рейтинг)
 Трекер:    Зареєстрований   

Завантажити / скачати фільм українською



відео для новачків



 Зареєстрований:   2018-01-19 11:12
 Розмір:   1.96 GB 
 Оцінка фільму:   9.4/10 (Голосів: 5)
   
perepadia 
VIP


З нами з: 27.10.08
Востаннє: 25.11.20
Повідомлень: 306

2018-01-19 13:06  
Видатний фільм. Спокійний, красивий, глибокий.
Зрештою, Вальлтер Салес, сам чи у парі з Даніелою Томас, инших і не знімає.

Зробив би хтось озвучку. Нехай одним голосом...

bohdk 
Відео Гуртом - субтитрування
Відео Гуртом - субтитрування


З нами з: 23.10.09
Востаннє: 24.11.20
Повідомлень: 740

2018-02-19 23:49  
Сильно. Правдиво. Зачіпає.
Дякую.

Ваш часовий пояс: GMT + 2 Години

Нова тема   Відповісти