Гора між нами / The Mountain Between Us (2017) Remux 1080p Ukr/Eng | Sub Ukr/Eng

Нові коментарі

Нова тема   Відповісти
Автор Повідомлення
staf777 
Попереджень: 1
Попереджень: 1 


З нами з: 16.11.16
Востаннє: 16.10.18
Повідомлень: 1632

2018-01-19 11:15  
Гора між нами / The Mountain Between Us (2017) Remux 1080p Ukr/Eng | Sub Ukr/Eng

Гора між нами / The Mountain Between Us (2017) Remux 1080p Ukr/Eng | Sub Ukr/Eng
Альтернативні постери:





Жанр: драма, мелодрама
Країна: США



Кінокомпанія: Chernin Entertainment, Twentieth Century Fox
Режисер: Хані Абу-Ассад
Актори: Ідріс Ельба, Кейт Вінслет, Бо Бріджес, Дермот Малруні та інші

Сюжет:
Над лісами штату Колорадо сталася авіакатастрофа. Випадкові попутники, чоловік і жінка, змушені тепер лише спільними зусиллями виживати в дикому середовищі. Але доктор Бен Трейс та письменниця Ешлі не мають наміру так просто здаватися...


Тривалість: 01:51:49
Якість: Remux 1080p
Відео:
кодек:
розмір кадру: 1920x1080
бітрейт: 24515 кб/с

Аудіо # 1:
мова: українська
переклад: професійний дубльований | студія Postmodern
кодек: 2.0
бітрейт: 192 кб/с
Інформація про дубляж:
Переклад: Дмитро Рассказов
Режисер дубляжу: Людмила Петриченко
Звукорежисер: Геннадій Алексєєв
Менеджер проекту: Ірина Туловська
Ролі дублювали: Бен - Кирило Нікітенко, Алекс - Катерина Сєргеєва, Волтер - Євген Пашин, Марк - Андрій Твердак, Пем - Наталя Надірадзе, Сара - Людмила Петриченко. А також В'ячеслав Дудко, Володимир Канівець, Дмитро Бузинський, Аліса Гур'єва, Андрій Мостренко, Катерина Башкіна-Зленко.

Фільм дубльовано компанією Postmodern
Аудіо # 2:
мова: англійська
переклад: оригінал
кодек: -HD MA 7.1
бітрейт: 4142 кб/с

Субтитри:
мова: українська
тип: програмні (м'які)
формат: *.srt

Субтитри:
мова: англійська
тип: пререндерні
формат: *.pgs
Info
General
Unique ID : 194339755522775586528463686561101163355 (0x923479B764DF2719A5F793BD890EAB5B)
Complete name : P:\HD українською » Фільми в HD\Драма\The Mountain Between Us (2017) Remux 1080p [Ukr][Eng] [Sub UkrEng][Hurtom].
Format :
Format version : Version 4 / Version 2
File size : 22.5 GiB
Duration : 1 h 51 min
Overall bit rate mode : Variable
Overall bit rate : 28.9 Mb/s
Movie name : The Mountain Between Us (2017) Remux 1080p Ukr/Eng | Sub Ukr/Eng[Hurtom]
Encoded date : UTC 2018-01-19 15:09:12
Writing application : v9.8.0 ('Kuglblids') 64bit
Writing library : libebml v1.3.4 + v1.4.5

Video
ID : 1
Format : AVC
Format/Info : Advanced Video Codec
Format profile : [email protected]
Format settings, CABAC : Yes
Format settings, ReFrames : 2 frames
Codec ID : V_MPEG4/ISO/AVC
Duration : 1 h 51 min
Bit rate mode : Variable
Bit rate : 24.5 Mb/s
Width : 1 920 pixels
Height : 1 080 pixels
Display aspect ratio : 16:9
Frame rate mode : Constant
Frame rate : 23.976 (24000/1001) FPS
Color space : YUV
Chroma subsampling : 4:2:0
Bit depth : 8 bits
Scan type : Progressive
Bits/(Pixel*Frame) : 0.493
Stream size : 19.1 GiB (85%)
Title : The Mountain Between Us (2017)
Default : Yes
Forced : No

Audio #1
ID : 2
Format : AC-3
Format/Info : Audio Coding 3
Mode extension : CM (complete main)
Format settings, Endianness : Big
Codec ID : A_AC3
Duration : 1 h 51 min
Bit rate mode : Constant
Bit rate : 192 kb/s
Channel(s) : 2 channels
Channel positions : Front: L R
Sampling rate : 48.0 kHz
Frame rate : 31.250 FPS (1536 spf)
Bit depth : 16 bits
Compression mode : Lossy
Stream size : 154 MiB (1%)
Title : [UA-DUB-Postmodern]
Language : Ukrainian
Default : Yes
Forced : Yes

Audio #2
ID : 3
Format :
Format/Info : Digital Theater Systems
Format profile : MA / Core
Mode : 16
Format settings, Endianness : Big
Codec ID : A_DTS
Duration : 1 h 51 min
Bit rate mode : Variable / Constant
Bit rate : 4 142 kb/s / 1 509 kb/s
Channel(s) : 8 channels / 6 channels
Channel positions : Front: L C R, Side: L R, Back: L R, LFE / Front: L C R, Side: L R, LFE
Sampling rate : 48.0 kHz
Frame rate : 93.750 FPS (512 spf)
Bit depth : 24 bits
Compression mode : Lossless / Lossy
Stream size : 3.24 GiB (14%)
Title : [Original]
Language : English
Default : No
Forced : No

Text #1
ID : 4
Format : UTF-8
Codec ID : S_TEXT/UTF8
Codec ID/Info : UTF-8 Plain Text
Duration : 1 h 46 min
Bit rate : 48 b/s
Count of elements : 980
Stream size : 37.4 KiB (0%)
Language : Ukrainian
Default : No
Forced : No

Text #2
ID : 5
Format : PGS
Muxing mode : zlib
Codec ID : S_HDMV/PGS
Codec ID/Info : Picture based subtitle format used on BDs/HD-DVDs
Duration : 1 h 48 min
Bit rate : 13.1 kb/s
Count of elements : 2687
Stream size : 10.2 MiB (0%)
Title : SDH
Language : English
Default : No
Forced : No
Скріншоти



Джерело: &
Особиста оцінка: 0 - не дивився


Золотий реліз (завантажене не впливає на рейтинг)
 Трекер:    Зареєстрований   

Завантажити / скачати фільм українською



відео для новачків



 Зареєстрований:   2018-01-19 20:05
 Розмір:   22.55 GB 
 Оцінка фільму:   8.8/10 (Голосів: 18)
   
[email protected] 
Свій


З нами з: 25.03.17
Востаннє: 16.10.18
Повідомлень: 120

2018-01-21 22:22  
Надзвичайно чудовий фільм, 10 з 10, рекомендую подивитись кожному)))))))))

Додано через 28 секунд:

Шедевр

Uberwinder 
VIP


З нами з: 18.11.16
Востаннє: 17.10.18
Повідомлень: 267

2018-02-23 22:41  
Незважаючи на досить посередній рейтинг, стрічка напрочуд гарна!
Ваш часовий пояс: GMT + 2 Години

Нова тема   Відповісти