300 спартанців: Відродження імперії / 300: Rise of an Empire (2014) Remux 1080p Ukr/Eng | Sub Ukr/Eng

Нові коментарі

Нова тема   Відповісти
Автор Повідомлення
staf777 
Відео Гуртом - підтримка та поширення
Відео Гуртом - підтримка та поширення


З нами з: 16.11.16
Востаннє: 23.01.21
Повідомлень: 4820

2018-01-19 09:16  
300 спартанців: Відродження імперії / 300: Rise of an Empire (2014) Remux 1080p Ukr/Eng | Sub Ukr/Eng

300 спартанців: Відродження імперії / 300: Rise of an Empire (2014) Remux 1080p Ukr/Eng | Sub Ukr/Eng

«Всупереч смерті»



Жанр: екшн, драма
Країна: США



Кінокомпанія: Atmosphere Entertainment MM LLC, Cruel & Unusual Films, Hollywood Gang Productions, Legendary Pictures, Nimar Studios Ltd, Warner Bros. Pictures
Режисер: Ноам Мюрро
Актори: Каллан Малвей, Єва Грін, Родріго Санторо, Саліван Степлтон, Джеймі Блеклей

Сюжет:
Неймовірна міць армії Ксеркса, підім'явши під себе могутніх спартанців, рухається далі. Наступне місто на їх шляху - Афіни. Афіни теж не збираються здаватися, до того ж у них є один з найпотужніших флотів, яким управляє Фемістокл. Але так, як армія Ксеркса могутня й на суші і на воді, Афіни просять допомоги у своїх противників - спартанців. Також будуть показані основні конфлікти, що відбулися при Саламіні і Марафоні. Так само сюжет розкриє деякі подробиці з минулого Ксеркса, як саме він прийшов до статусу "Божественного короля".


Тривалість: 01:42:46
Якість: Remux 1080p
Відео:
кодек:
розмір кадру: 1920x1080
бітрейт: 27513 кб/с

Аудіо # 1:
мова: українська
переклад: професійний дубльований
кодек: 5.1
бітрейт: 448 кб/с

Аудіо # 2:
мова: англійська
переклад: оригінал
кодек: -HD MA 7.1
бітрейт: 5577 кб/с

Субтитри (Forced, Full):
мова: українська
тип: програмні (м'які)
формат: *.srt

Субтитри (Full, SDH):
мова: англійська
тип: програмні (м'які)
формат: *.srt
Info
Код:

General
Unique ID                                : 200184188206906220053540647509351408970 (0x969A127EB7A34410BFECCAFE0ACB254A)
Complete name                            : P:\HD українською » Фільми в HD\Фентезі\300 Rise of an Empire (2014) Remux 1080p [Ukr][Eng] [Sub UkrEng][Hurtom].
Format                                   :
Format version                           : Version 4 / Version 2
File size                                : 24.0 GiB
Duration                                 : 1 h 42 min
Overall bit rate mode                    : Variable
Overall bit rate                         : 33.5 Mb/s
Movie name                               : 300: Rise of an Empire (2014) Remux 1080p Ukr/Eng | Sub Ukr/Eng[Hurtom]
Encoded date                             : UTC 2018-01-20 12:55:35
Writing application                      : v9.8.0 ('Kuglblids') 64bit
Writing library                          : libebml v1.3.4 + v1.4.5
Cover                                    : Yes
Attachments                              : cover.jpg

Video
ID                                       : 1
Format                                   : AVC
Format/Info                              : Advanced Video Codec
Format profile                           : [email protected]
Format settings, CABAC                   : Yes
Format settings, ReFrames                : 2 frames
Format settings, GOP                     : M=1, N=10
Codec ID                                 : V_MPEG4/ISO/AVC
Duration                                 : 1 h 42 min
Bit rate mode                            : Variable
Bit rate                                 : 27.5 Mb/s
Width                                    : 1 920 pixels
Height                                   : 1 080 pixels
Display aspect ratio                     : 16:9
Frame rate mode                          : Constant
Frame rate                               : 23.976 (24000/1001) FPS
Color space                              : YUV
Chroma subsampling                       : 4:2:0
Bit depth                                : 8 bits
Scan type                                : Progressive
Bits/(Pixel*Frame)                       : 0.553
Stream size                              : 19.7 GiB (82%)
Title                                    : 300: Rise of an Empire 2014  Remux 1080p
Language                                 : English
Default                                  : Yes
Forced                                   : No

Audio #1
ID                                       : 2
Format                                   : AC-3
Format/Info                              : Audio Coding 3
Mode extension                           : CM (complete main)
Format settings, Endianness              : Big
Codec ID                                 : A_AC3
Duration                                 : 1 h 42 min
Bit rate mode                            : Constant
Bit rate                                 : 448 kb/s
Channel(s)                               : 6 channels
Channel positions                        : Front: L C R, Side: L R, LFE
Sampling rate                            : 48.0 kHz
Frame rate                               : 31.250 FPS (1536 spf)
Bit depth                                : 16 bits
Compression mode                         : Lossy
Stream size                              : 329 MiB (1%)
Title                                    : ➨ Dub BD CEE
Language                                 : Ukrainian
Default                                  : Yes
Forced                                   : Yes

Audio #2
ID                                       : 3
Format                                   :
Format/Info                              : Digital Theater Systems
Format profile                           : MA / Core
Mode                                     : 16
Format settings, Endianness              : Big
Codec ID                                 : A_DTS
Duration                                 : 1 h 42 min
Bit rate mode                            : Variable / Constant
Bit rate                                 : 5 577 kb/s / 1 509 kb/s
Channel(s)                               : 8 channels / 6 channels
Channel positions                        : Front: L C R, Side: L R, Back: L R, LFE / Front: L C R, Side: L R, LFE
Sampling rate                            : 48.0 kHz
Frame rate                               : 93.750 FPS (512 spf)
Bit depth                                : 24 bits
Compression mode                         : Lossless / Lossy
Stream size                              : 4.00 GiB (17%)
Title                                    : ➨ Original
Language                                 : English
Default                                  : No
Forced                                   : No

Text #1
ID                                       : 4
Format                                   : UTF-8
Codec ID                                 : S_TEXT/UTF8
Codec ID/Info                            : UTF-8 Plain Text
Duration                                 : 1 h 34 min
Bit rate                                 : 0 b/s
Count of elements                        : 2
Stream size                              : 110 Bytes (0%)
Title                                    : ➨ Forced
Language                                 : Ukrainian
Default                                  : Yes
Forced                                   : Yes

Text #2
ID                                       : 5
Format                                   : UTF-8
Codec ID                                 : S_TEXT/UTF8
Codec ID/Info                            : UTF-8 Plain Text
Duration                                 : 1 h 35 min
Bit rate                                 : 72 b/s
Count of elements                        : 916
Stream size                              : 50.6 KiB (0%)
Title                                    : ➨ Full
Language                                 : Ukrainian
Default                                  : No
Forced                                   : No

Text #3
ID                                       : 6
Format                                   : UTF-8
Codec ID                                 : S_TEXT/UTF8
Codec ID/Info                            : UTF-8 Plain Text
Duration                                 : 1 h 30 min
Bit rate                                 : 44 b/s
Count of elements                        : 922
Stream size                              : 29.8 KiB (0%)
Title                                    : ➨ Full
Language                                 : English
Default                                  : No
Forced                                   : No

Text #4
ID                                       : 7
Format                                   : UTF-8
Codec ID                                 : S_TEXT/UTF8
Codec ID/Info                            : UTF-8 Plain Text
Duration                                 : 1 h 30 min
Bit rate                                 : 46 b/s
Count of elements                        : 922
Stream size                              : 30.5 KiB (0%)
Title                                    : ➨ Full i
Language                                 : English
Default                                  : No
Forced                                   : No

Text #5
ID                                       : 8
Format                                   : UTF-8
Codec ID                                 : S_TEXT/UTF8
Codec ID/Info                            : UTF-8 Plain Text
Duration                                 : 1 h 42 min
Bit rate                                 : 42 b/s
Count of elements                        : 1005
Stream size                              : 32.0 KiB (0%)
Title                                    : ➨ SDH
Language                                 : English
Default                                  : No
Forced                                   : No

Text #6
ID                                       : 9
Format                                   : UTF-8
Codec ID                                 : S_TEXT/UTF8
Codec ID/Info                            : UTF-8 Plain Text
Duration                                 : 1 h 42 min
Bit rate                                 : 51 b/s
Count of elements                        : 1005
Stream size                              : 38.2 KiB (0%)
Title                                    : ➨ SDH Colored
Language                                 : English
Default                                  : No
Forced                                   : No

Menu
00:00:00.000                             : en: ➨ HDR 01
00:10:26.375                             : en: ➨ HDR 02
00:20:54.628                             : en: ➨ HDR 03
00:31:15.290                             : en: ➨ HDR 04
00:40:58.497                             : en: ➨ HDR 05
00:50:50.714                             : en: ➨ HDR 06
01:00:05.435                             : en: ➨ HDR 07
01:09:51.812                             : en: ➨ HDR 08
01:19:51.244                             : en: ➨ HDR 09
01:31:07.295                             : en: ➨ HDR 10
01:33:57.131                             : en: ➨ HDR 11
Скріншоти







Джерело: &
Особиста оцінка: 0 - не дивився


Золотий реліз (завантажене не впливає на рейтинг)
 Трекер:    Зареєстрований   

Завантажити / скачати фільм українською



відео для новачків



 Зареєстрований:   2018-01-20 16:43
 Розмір:   24.04 GB 
 Оцінка фільму:   10/10 (Голосів: 14)
   
-ПАН КОЦЬКИЙ- 
Свій


З нами з: 27.11.17
Востаннє: 07.01.21
Повідомлень: 81

2018-01-19 15:40  
Достойте вийшло продовження греко-перських війн. Але не розумію назву "300: Rise of an Empire". Адже 300 спартанців тут вже ні до чого. Я, як історик, розумію, що пік розквіту Персії припадає саме на початок експансії в Елладу, але ж фільм показує іншу сторону - початок занепаду. Тому назва обрана невдало.
Постапокаліптичний Батон 
Свій


З нами з: 08.09.11
Востаннє: 23.01.21
Повідомлень: 57

2018-01-19 19:59  
-ПАН КОЦЬКИЙ-
Дивно, що Ви, як історик, взагалі намагаєтеся аналізувати фентезі. Хоча Вікіпедія свідчить про те, що компанію вам складають професори відомих університетів. Перша частина - екранізація коміксу, який автор творив під враженням фільму 1962 року. Абсурдність зашкалює, чи не так? Друга частина, як наслідок успіху першої, мала спочатку стати коміксом, але усім хотілося грошей, тому вона стартонулася фільмом. Комікс, до речі, досі не вийшов. Кажуть, що творець цих ""графічних" "романів"" навіть тримав у руках Геродота.
Щось я занадто сильно наїхав на Френка Міллера, бо його казки для дорослих мені подобаються. Але шукати в них історичної достовірності - марна справа.

-ПАН КОЦЬКИЙ- 
Свій


З нами з: 27.11.17
Востаннє: 07.01.21
Повідомлень: 81

2018-01-19 21:12  
Постапокаліптичний Батон
Я ж не шукав історичних достовірностей (у кіно часто реальними фактами нехтують і можливо то на краще). Уважніше читай. Я міркував навколо назви фільму.

Постапокаліптичний Батон 
Свій


З нами з: 08.09.11
Востаннє: 23.01.21
Повідомлень: 57

2018-01-20 14:50  
-ПАН КОЦЬКИЙ-
Тут простежується прямий зв'язок. "300" - то назва франшизи, яка ґиґнула.

bot 
робот


З нами з: 30.09.07
Востаннє: 26.05.05
Повідомлень: 26964

2018-01-20 16:43  
Тему перенесено з Анонси релізів до форуму Фільми в HD


staf777

[email protected]il 
VIP


З нами з: 24.03.17
Востаннє: 23.01.21
Повідомлень: 647

2021-01-09 19:33  
Цей фільм як на мене більш ефектніший за фільм 300 спартанців.
Ваш часовий пояс: GMT + 2 Години

Нова тема   Відповісти