Вартові джунглів / Les As de la Jungle (2017) Remux 1080p Ukr/Fre | Sub Fre — HD українською

Вартові джунглів / Les As de la Jungle (2017) Remux 1080p Ukr/Fre | Sub Fre

Нові коментарі

Нова тема   Відповісти
Автор Повідомлення
Anonymous 







2018-01-18 09:57  
Вартові джунглів / Les As de la Jungle (2017) Remux 1080p Ukr/Fre | Sub Fre

Вартові джунглів / Les As de la Jungle (2017) Remux 1080p Ukr/Fre | Sub Fre


Жанр: анімація, пригодницький, сімейний
Країна: Франція



Кінокомпанія: TAT Productions, Master Films, Vanilla Seed, France Télévisions, Centre National de la Cinématographie (CNC), Région Midi-Pyrénées, Procirep, Angoa
Режисер: Девід Ало / David Alaux
Ролі озвучують: Поль Борне / Paul Borne, Філіпп Бозо / Philippe Bozo, Паскаль Казанова / Pascal Casanova, Еммануель Кюртіль / Emmanuel Curtil, Селін Монсарра / Céline Montsarrat, Лоран Морто / Laurent Morteau та інші

Сюжет:
Пінгвін Моріс має незвичайний тигровий окрас, але всередині він відчуває себе справжнім тигром - героєм, якого потребують джунглі. Разом зі своєю енергійною командою друзів Моріс стоїть на сторожі справедливості та порядку. Правда, не завжди у них це добре виходить... Злісна коала Ігор із допомогою армії тупуватих бабуїнів хоче знищити джунглі раз і назавжди. Це справжній виклик для Вартових джунглів! Вони нікому не дадуть знищити свій дім...
Офіційний український трейлер:

Вікова категорія: 6+
Тривалість: 01:37:06
Якість: Remux [Французький блурей]
Відео:
кодек:
розмір кадру: 1920х1080
бітрейт: 32,1 Мб/с
примітка: краща якість та майже вдвічі вищий бітрейт, ніж на російському блуреї

Аудіо:
мова: українська
переклад: професійний дубльований | студія AAA-Sound
кодек: 5.1
бітрейт: 384 кб/с
Інформація про дубляж
Режисер: Олександр Єфімов
Ролі дублювали: Дмитро Гаврилов, Ольга Радчук, Андрій Альохін, Катерина Брайковська, Юрій Ребрик, Михайло Кришталь, Ярослав Чорненький, Катерина Буцька, Анатолій Зіновенко, Кирило Нікітенко, Юлія Перенчук, Павло Скороходько та інші.

Мультфільм дубльовано студією AAA-Sound у 2017 році на замовлення компанії Вольґа Україна.
Аудіо # 2:
мова: французька
переклад: оригінал
кодек: -HD MA 5.1
бітрейт: 2274 кб/с

Субтитри:
мова: французська (SDH кольорові)
тип: пререндерні
формат: pgs

Збережено оригінальні розділи, як на Blu-ray
Info
Код:
Complete name               : Les As de la Jungle (2017) [Ukr,Fre sub.Fre] Remux 1080p [Hurtom].
Format                      :
Format version              : Version 4 / Version 2
File size                   : 23.6 GiB
Duration                    : 1 h 37 min
Overall bit rate mode       : Variable
Overall bit rate            : 34.8 Mb/s
Movie name                  : Вартові джунглів / Les As de la Jungle (2017) [Ukr,Fre sub Fre] Remux 1080p [Hurtom]
Released date               : 2017
Encoded date                : UTC 2018-01-18 17:23:21
Writing application         : v20.0.0 ('I Am The Sun') 64-bit
Writing library             : libebml v1.3.5 + v1.4.8
Cover                       : Yes
Comment                     : http://www.imdb.com/title/tt6314690/
Attachments                 : cover.jpg
ARTIST                      : Поль Борне / Paul Borne, Філіпп Бозо / Philippe Bozo, Паскаль Казанова / Pascal Casanova, Еммануель Кюртіль / Emmanuel Curtil, Селін Монсарра / Céline Montsarrat, Лоран Морто / Laurent Morteau та інші
DIRECTOR                    : Девід Ало / David Alaux
GENRE                       : анімація, пригодницький, сімейний
SYNOPSIS                    : На перший погляд може здатися, що Моріс – звичайний пінгвін, адже зовні він виглядає як цей птах із забарвленням тигра. Але насправді всередині Моріс – справжній тигр, адже виріс серед цих гордих звірів. Він дуже хоробрий, сильний і готовий захищати свої джунглі від найстрашніших загроз разом зі своїми друзями. Вартові джунглів, як вони себе називають, завжди охороняють порядок і вершать правосуддя у своєму величезному домі, як до них це робила тигриця – мама Моріса. Правда, не завжди у них це добре виходить... Злісна коала Ігор із допомогою армії тупих бабуїнів хоче знищити джунглі раз і назавжди. Це справжня робота для Вартових джунглів! Вони нікому не дадуть знищити свій дім...
Url                         : https://toloka.to/t86629

Video
ID                          : 1
Format                      : AVC
Format/Info                 : Advanced Video Codec
Format profile              : [email protected]
Format settings             : CABAC / 2 Ref Frames
Format settings, CABAC      : Yes
Format settings, ReFrames   : 2 frames
Codec ID                    : V_MPEG4/ISO/AVC
Duration                    : 1 h 37 min
Bit rate mode               : Variable
Bit rate                    : 32.1 Mb/s
Width                       : 1 920 pixels
Height                      : 1 080 pixels
Display aspect ratio        : 16:9
Frame rate mode             : Constant
Frame rate                  : 24.000 FPS
Color space                 : YUV
Chroma subsampling          : 4:2:0
Bit depth                   : 8 bits
Scan type                   : Progressive
Bits/(Pixel*Frame)          : 0.645
Stream size                 : 21.8 GiB (92%)
Title                       : Вартові джунглів / Les As de la Jungle (2017) Remux [FRENCH BLURAY-4FR]
Language                    : French
Default                     : Yes
Forced                      : No

Audio #1
ID                          : 2
Format                      : AC-3
Format/Info                 : Audio Coding 3
Codec ID                    : A_AC3
Duration                    : 1 h 37 min
Bit rate mode               : Constant
Bit rate                    : 384 kb/s
Channel(s)                  : 6 channels
Channel positions           : Front: L C R, Side: L R, LFE
Sampling rate               : 48.0 kHz
Frame rate                  : 31.250 FPS (1536 SPF)
Bit depth                   : 16 bits
Compression mode            : Lossy
Stream size                 : 267 MiB (1%)
Title                       : Dub [AAA-Sound, iTunes] 5.1 384 Kbps
Language                    : Ukrainian
Service kind                : Complete Main
Default                     : Yes
Forced                      : Yes

Audio #2
ID                          : 3
Format                      :
Format/Info                 : Digital Theater Systems
Format profile              : MA / Core
Codec ID                    : A_DTS
Duration                    : 1 h 37 min
Bit rate mode               : Variable / Constant
Bit rate                    : 2 274 kb/s / 1 509 kb/s
Channel(s)                  : 6 channels
Channel positions           : Front: L C R, Side: L R, LFE
Sampling rate               : 48.0 kHz
Frame rate                  : 93.750 FPS (512 SPF)
Bit depth                   : 16 bits
Compression mode            : Lossless / Lossy
Stream size                 : 1.54 GiB (7%)
Title                       : Original, -HD MA 5.1 2274 kbps
Language                    : French
Default                     : No
Forced                      : No

Text
ID                          : 4
Format                      : PGS
Muxing mode                 : zlib
Codec ID                    : S_HDMV/PGS
Codec ID/Info               : Picture based subtitle format used on BDs/HD-DVDs
Duration                    : 1 h 37 min
Bit rate                    : 25.5 kb/s
Count of elements           : 2478
Stream size                 : 17.7 MiB (0%)
Title                       : French SDH Colored
Language                    : French
Default                     : No
Forced                      : No

Menu
00:00:00.000                : en:Chapter 1
00:09:29.583                : en:Chapter 2
00:18:42.333                : en:Chapter 3
00:24:51.291                : en:Chapter 4
00:31:55.708                : en:Chapter 5
00:39:47.916                : en:Chapter 6
00:48:11.166                : en:Chapter 7
00:58:14.500                : en:Chapter 8
01:04:07.166                : en:Chapter 9
01:12:18.583                : en:Chapter 10
01:21:19.583                : en:Chapter 11
01:29:42.875                : en:Chapter 12
Скріншоти:
Джерело: &
Подяка сайту uafilm.tv за придбання української доріжки.


Золотий реліз (завантажене не впливає на рейтинг)
 Трекер:    Зареєстрований   

Завантажити / скачати мультфільм українською



відео для новачків



 Зареєстрований:   2018-01-18 20:56
 Розмір:   23.6 GB 
 Оцінка мультфільму:   8.1/10 (Голосів: 7)
   
Інші релізи
exitvray 
Частий відвідувач


З нами з: 17.02.13
Востаннє: 14.08.18
Повідомлень: 46

2018-01-24 21:09  
Робота в 3 DS Max чи 4D Cinema чи в чому його робили на 10 балів,проте , це цей мульт не рятує-вимкнув через 20хв перегляду-по проханню сім'ї.
Uberwinder 
VIP


З нами з: 18.11.16
Востаннє: 14.08.18
Повідомлень: 266

2018-02-11 21:56  
Цікаво, що вживали творці мультфільму?
Ваш часовий пояс: GMT + 2 Години

Нова тема   Відповісти