Не гальмуй / À fond (2016) Remux 1080p Ukr/Fre | Sub Fre

Нові коментарі

Нова тема   Відповісти
Автор Повідомлення
staf777 
Відео Гуртом - підтримка та поширення
Відео Гуртом - підтримка та поширення


З нами з: 16.11.16
Востаннє: 23.04.19
Повідомлень: 2285

2018-01-17 13:07  
Не гальмуй / À fond (2016) Remux 1080p Ukr/Fre | Sub Fre

Не гальмуй / À fond (2016) Remux 1080p Ukr/Fre | Sub Fre


Жанр: комедія
Країна: Франція, Македонія



Кінокомпанія: Chic Films, La Petite Reine
Режисер: Ніколас Бенаму
Актори: Жозе Гарсія, Андре Дюссольє, Каролін Віньо, Шарлотта Габрис, Венсан Дезанья

Сюжет:
Сімейство відправляється в подорож на новенькому мінівені рано-вранці, щоб уникнути літніх пробок. Щоб було ще простіше, вони фіксують круїз-контроль на швидкості 130 км/год. І все б нічого, але при спробі повернути з'ясовується, що у них немає контролю над автомобілем.


Тривалість: 01:31:14
Якість: Remux 1080p
Відео:
кодек:
розмір кадру: 1920x1080
бітрейт: 36.0 Mб/с

Аудіо # 1:
мова: українська
переклад: багатоголосий закадровий | студія ААА-sound
кодек: 5.1
бітрейт: 384 кб/с
Інформація про озвучення
Режисер: Олександр Єфімов
Ролі озвучили: Андрій Федінчик, Андрій Альохін, Юлія Перенчук, Ярослав Чорненький, Катерина Брайковська, Дмитро Завадський та інші.

Фільм озвучено студією ААА-sound у 2016 році на замовлення компанії Вольга-Україна.
Аудіо # 2:
мова: французька
переклад: оригінал
кодек: -HD MA 5.1
бітрейт: 3840 кб/с

Аудіо # 3:
мова: французька
переклад: коментарі
кодек: 2.0
бітрейт: 768 кб/с

Субтитри:
мова: французька
тип: пререндерні
формат: *.pgs
Info
General
Unique ID : 204367396491913638343515332248792701513 (0x99BFBA964EF09A3E979DCC8671539A49)
Complete name : P:\HD українською » Фільми в HD\Комедія\A.Fond.2016.Remux\BDMV\STREAM\À fond (2016) Remux 1080p [Ukr][Fre] [Sub Fre][Hurtom].
Format :
Format version : Version 4 / Version 2
File size : 26.1 GiB
Duration : 1 h 31 min
Overall bit rate mode : Variable
Overall bit rate : 41.0 Mb/s
Movie name : À fond (2016) Remux 1080p Ukr/Fre | Sub Fre
Encoded date : UTC 2018-01-17 09:48:59
Writing application : v9.8.0 ('Kuglblids') 64bit
Writing library : libebml v1.3.4 + v1.4.5

Video
ID : 1
Format : AVC
Format/Info : Advanced Video Codec
Format profile : [email protected]
Format settings, CABAC : Yes
Format settings, ReFrames : 3 frames
Codec ID : V_MPEG4/ISO/AVC
Duration : 1 h 31 min
Bit rate mode : Variable
Bit rate : 36.0 Mb/s
Maximum bit rate : 39.0 Mb/s
Width : 1 920 pixels
Height : 1 080 pixels
Display aspect ratio : 16:9
Frame rate mode : Constant
Frame rate : 23.976 (24000/1001) FPS
Color space : YUV
Chroma subsampling : 4:2:0
Bit depth : 8 bits
Scan type : Progressive
Bits/(Pixel*Frame) : 0.724
Stream size : 22.9 GiB (88%)
Title : À fond (2016)
Writing library : core 146 r2538 121396c
Encoding settings : cabac=1 / ref=4 / deblock=1:-1:-1 / analyse=0x3:0x133 / me=umh / subme=10 / psy=1 / psy_rd=1.00:0.15 / mixed_ref=1 / me_range=24 / chroma_me=1 / trellis=2 / 8x8dct=1 / cqm=0 / deadzone=21,11 / fast_pskip=1 / chroma_qp_offset=-3 / threads=48 / lookahead_threads=4 / sliced_threads=0 / slices=4 / nr=0 / decimate=1 / interlaced=0 / bluray_compat=1 / constrained_intra=0 / bframes=3 / b_pyramid=1 / b_adapt=2 / b_bias=0 / direct=3 / weightb=1 / open_gop=1 / weightp=1 / keyint=24 / keyint_min=1 / scenecut=40 / intra_refresh=0 / rc_lookahead=24 / rc=2pass / mbtree=1 / bitrate=36000 / ratetol=1.0 / qcomp=0.60 / qpmin=0 / qpmax=69 / qpstep=4 / cplxblur=20.0 / qblur=0.5 / vbv_maxrate=39000 / vbv_bufsize=30000 / nal_hrd=vbr / filler=0 / ip_ratio=1.40 / aq=1:1.00
Default : Yes
Forced : No
Color range : Limited
Color primaries : BT.709
Transfer characteristics : BT.709
Matrix coefficients : BT.709

Audio #1
ID : 2
Format : AC-3
Format/Info : Audio Coding 3
Mode extension : CM (complete main)
Format settings, Endianness : Big
Codec ID : A_AC3
Duration : 1 h 31 min
Bit rate mode : Constant
Bit rate : 384 kb/s
Channel(s) : 6 channels
Channel positions : Front: L C R, Side: L R, LFE
Sampling rate : 48.0 kHz
Frame rate : 31.250 FPS (1536 spf)
Bit depth : 16 bits
Compression mode : Lossy
Stream size : 251 MiB (1%)
Title : [UA-MVO]''iTunes''
Language : Ukrainian
Default : Yes
Forced : Yes

Audio #2
ID : 3
Format :
Format/Info : Digital Theater Systems
Format profile : MA / Core
Mode : 16
Format settings, Endianness : Big
Codec ID : A_DTS
Duration : 1 h 31 min
Bit rate mode : Variable / Constant
Bit rate : 3 840 kb/s / 1 509 kb/s
Channel(s) : 6 channels
Channel positions : Front: L C R, Side: L R, LFE
Sampling rate : 48.0 kHz
Frame rate : 93.750 FPS (512 spf)
Bit depth : 24 bits
Compression mode : Lossless / Lossy
Stream size : 2.49 GiB (10%)
Title : [Original][Fre]
Language : French
Default : No
Forced : No

Audio #3
ID : 4
Format :
Format/Info : Digital Theater Systems
Mode : 16
Format settings, Endianness : Big
Codec ID : A_DTS
Duration : 1 h 31 min
Bit rate mode : Constant
Bit rate : 768 kb/s
Channel(s) : 2 channels
Channel positions : Front: L R
Sampling rate : 48.0 kHz
Frame rate : 93.750 FPS (512 spf)
Bit depth : 16 bits
Compression mode : Lossy
Stream size : 501 MiB (2%)
Title : коментарі [Fre]
Language : French
Default : No
Forced : No

Text
ID : 5
Format : PGS
Muxing mode : zlib
Codec ID : S_HDMV/PGS
Codec ID/Info : Picture based subtitle format used on BDs/HD-DVDs
Duration : 1 h 30 min
Bit rate : 12.6 kb/s
Count of elements : 3616
Stream size : 8.18 MiB (0%)
Title : [Fre-sub]
Language : French
Default : No
Forced : No
Скріншоти



Джерело: &
Особиста оцінка: 8 - мені сподобалося


Золотий реліз (завантажене не впливає на рейтинг)
 Трекер:    Зареєстрований   

Завантажити / скачати фільм українською



відео для новачків



 Зареєстрований:   2018-01-17 14:15
 Розмір:   26.13 GB 
 Оцінка фільму:   6.6/10 (Голосів: 8)
   
Інші релізи
   Не гальмуй / À fond (2016) 1080p Ukr/Fre Electroz  4 / 0   10.06 GB   2017-05-06 09:24 
   Не гальмуй / À fond (2016) 720p Ukr/Fre 11FrYkT  4 / 0   4.35 GB   2017-05-05 18:37 
   Не гальмуй / À fond (2016) AVC Ukr/Fre 11FrYkT  12 / 1   2.15 GB   2017-05-05 17:54 
   Не гальмуй / À fond (2016) Gelios  6 / 0   1.45 GB   2017-05-03 14:40 
igor911 
Відео Гуртом
Відео Гуртом


З нами з: 18.01.08
Востаннє: 23.04.19
Повідомлень: 12333

2018-01-19 15:30  
staf777 написано:

кодек: 5.1
бітрейт: 1509 кб/с

невірно, виправ даними з медіаінфо

Ondrey 
Частий відвідувач


З нами з: 12.04.09
Востаннє: 12.04.19
Повідомлень: 25

2019-03-09 22:49  
Рідкісний шлак
Ваш часовий пояс: GMT + 2 Години

Нова тема   Відповісти