Битва статей / Battle of the Sexes (2017) 1080p Ukr/Eng | Sub Ukr/Eng

Нові коментарі

Нова тема   Відповісти
Автор Повідомлення
staf777 
Попереджень: 1
Попереджень: 1 


З нами з: 16.11.16
Востаннє: 19.12.18
Повідомлень: 1940

2018-01-16 20:22  
Битва статей / Battle of the Sexes (2017) 1080p Ukr/Eng | Sub Ukr/Eng

Битва статей / Battle of the Sexes (2017) 1080p Ukr/Eng | Sub Ukr/Eng
Альтернативний український постер:




Жанр: біографія, драма, комедія, спорт, ЛГБТ
Країна: Велика Британія, США



Кінокомпанія: Cloud Eight Films, Decibel Films, Fox Searchlight Pictures
Режисер: Джонатан Дейтон, Валері Феріс
Актори: Емма Стоун, Стів Карелл, Андреа Райзборо, Наталі Моралес, Сара Сілверман, Білл Пуллман, Алан Каммінг, Елізабет Шу, Ерік Крістіан Олсен, Фред Армізен

Сюжет:
Історія суперництва між 55-річним чемпіоном Вімблдону Боббі Ріггсом і 29-річною тенісисткою Біллі Джин Кінг. Легендарний матч, що пройшов у 1973 році, зібрав біля екранів більше 50 мільйонів американців і довів, що професійні спортсменки здатні на рівних змагатися з колегами-чоловіками.


Тривалість: 02:01:39
Якість: 1080p

Відео:
кодек:
розмір кадру:1920x804
бітрейт: 14,5 Mб/с

Аудіо # 1:
мова: українська
переклад: професійний дубльований
кодек: 5.1
бітрейт: 384 кб/с
Інформація про дубляж
Переклад: Сергій Кириченко
Режисер дубляжу: Людмила Петриченко
Звукорежисер: Антон Семикопенко
Менеджер проекту: Ірина Туловська
Ролі дублювали: Юлія Перенчук (Біллі), Ярослав Чорненький (Боббі), Олена Бліннікова (Гледіс), Марина Локтіонова (Мерилін), Катерина Башкіна-Зленко (Маргарет), Дмитро Гаврилов (Ларрі), Євген Пашин (Креймер), Оксана Гринько (Розі), Ганна Соболєва (Персик), Роман Чорний (Лорні),
а також Катерина Буцька, Олесь Гімбаржевський, Юрій Гребельник, Юрій Кудрявець, Дарина Муращенко, Олександр Погребняк, Наталя Поліщук, Роман Семисал, Андрій Соболєв, Олександр Солодкий, Дмитро Терещук, Володимир Терещук та інші.
Студія міксу - Делюкс Медіа (Deluxe Media), студія дубляжу - Postmodern
Аудіо # 2:
мова: англійська
переклад: оригінал
кодек: 5.1
бітрейт: 1509 кб/с

Субтитри # 1:
мова: українська
тип: програмні (м'які)
формат: *.srt

Субтитри # 2:
мова: англійська
тип: програмні (м'які)
формат: *.srt
Info
Код:

General
Unique ID                   : 316069586980933522227125775364786570360 (0xEDC8C9C7FA4F0D52053771A8E8854478)
Complete name               : K:\Драма\Battle of the Sexes (2017) 1080p [UKR][ENG][Hurtom].
Format                      :
Format version              : Version 4 / Version 2
File size                   : 13.9 GiB
Duration                    : 2 h 1 min
Overall bit rate            : 16.4 Mb/s
Movie name                  : Battle of the Sexes (2017) 1080p [UKR][ENG][Hurtom]
Encoded date                : UTC 2018-12-03 14:16:43
Writing application         : v24.0.0 ('Beyond The Pale') 64-bit
Writing library             : libebml v1.3.6 + v1.4.9
Cover                       : Yes
Attachments                 : cover

Video
ID                          : 1
Format                      : AVC
Format/Info                 : Advanced Video Codec
Format profile              : [email protected]
Format settings             : CABAC / 5 Ref Frames
Format settings, CABAC      : Yes
Format settings, ReFrames   : 5 frames
Codec ID                    : V_MPEG4/ISO/AVC
Duration                    : 2 h 1 min
Bit rate                    : 14.5 Mb/s
Width                       : 1 920 pixels
Height                      : 804 pixels
Display aspect ratio        : 2.40:1
Frame rate mode             : Constant
Frame rate                  : 23.976 (24000/1001) FPS
Color space                 : YUV
Chroma subsampling          : 4:2:0
Bit depth                   : 8 bits
Scan type                   : Progressive
Bits/(Pixel*Frame)          : 0.392
Stream size                 : 12.3 GiB (88%)
Title                       : Battle of the Sexes (2017)
Writing library             : core 148 r2665kMod a01e339
Encoding settings           : cabac=1 / ref=5 / deblock=1:-3:-3 / analyse=0x3:0x133 / me=umh / subme=11 / psy=1 / fade_compensate=0.00 / psy_rd=1.05:0.00 / mixed_ref=1 / me_range=48 / chroma_me=1 / trellis=2 / 8x8dct=1 / cqm=0 / deadzone=21,11 / fast_pskip=0 / chroma_qp_offset=-2 / threads=24 / lookahead_threads=4 / sliced_threads=0 / nr=0 / decimate=0 / interlaced=0 / bluray_compat=0 / constrained_intra=0 / fgo=0 / bframes=8 / b_pyramid=2 / b_adapt=2 / b_bias=0 / direct=3 / weightb=1 / open_gop=0 / weightp=2 / keyint=240 / keyint_min=24 / scenecut=40 / intra_refresh=0 / rc=2pass / mbtree=0 / bitrate=14500 / ratetol=1.0 / qcomp=0.70 / qpmin=0 / qpmax=69 / qpstep=4 / cplxblur=20.0 / qblur=0.5 / ip_ratio=1.20 / pb_ratio=1.20 / aq=3:0.80
Language                    : English
Default                     : Yes
Forced                      : No

Audio #1
ID                          : 2
Format                      : AC-3
Format/Info                 : Audio Coding 3
Codec ID                    : A_AC3
Duration                    : 2 h 1 min
Bit rate mode               : Constant
Bit rate                    : 384 kb/s
Channel(s)                  : 6 channels
Channel positions           : Front: L C R, Side: L R, LFE
Sampling rate               : 48.0 kHz
Frame rate                  : 31.250 FPS (1536 SPF)
Bit depth                   : 16 bits
Compression mode            : Lossy
Stream size                 : 334 MiB (2%)
Title                       : Dub [Postmodern, DVD], 5.1 ~384 kbps
Language                    : Ukrainian
Service kind                : Complete Main
Default                     : Yes
Forced                      : Yes

Audio #2
ID                          : 3
Format                      :
Format/Info                 : Digital Theater Systems
Codec ID                    : A_DTS
Duration                    : 2 h 1 min
Bit rate mode               : Constant
Bit rate                    : 1 509 kb/s
Channel(s)                  : 6 channels
Channel positions           : Front: L C R, Side: L R, LFE
Sampling rate               : 48.0 kHz
Frame rate                  : 93.750 FPS (512 SPF)
Bit depth                   : 24 bits
Compression mode            : Lossy
Stream size                 : 1.28 GiB (9%)
Title                       : [Original]
Language                    : English
Default                     : No
Forced                      : No

Text #1
ID                          : 4
Format                      : UTF-8
Codec ID                    : S_TEXT/UTF8
Codec ID/Info               : UTF-8 Plain Text
Duration                    : 2 h 0 min
Bit rate                    : 110 b/s
Count of elements           : 1639
Stream size                 : 97.5 KiB (0%)
Language                    : Ukrainian
Default                     : No
Forced                      : No

Text #2
ID                          : 5
Format                      : UTF-8
Codec ID                    : S_TEXT/UTF8
Codec ID/Info               : UTF-8 Plain Text
Duration                    : 1 h 57 min
Bit rate                    : 73 b/s
Count of elements           : 2070
Stream size                 : 63.3 KiB (0%)
Language                    : English
Default                     : No
Forced                      : No





Джерело: &
Особиста оцінка: 0 - не дивився
ЗАЛИШАЙТЕСЬ ЯКОМОГА ДОВШЕ НА РОЗДАЧІ!

СКАЧАВ САМ - ДАЙ СКАЧАТИ ІНШИМ



 Трекер:    Зареєстрований   

Завантажити / скачати фільм українською



відео для новачків



 Зареєстрований:   2018-12-03 17:05
 Розмір:   13.93 GB 
 Оцінка фільму:   5.2/10 (Голосів: 20)
   
Інші релізи
   Битва статей / Battle of the Sexes (2017) AVC Ukr/Eng | Sub Ukr/Eng 11FrYkT  12 / 0   2.34 GB   2018-11-24 19:41 
   Битва статей / Battle of the Sexes (2017) 720p Ukr/Eng | Sub Ukr/Eng 11FrYkT  16 / 0   6.23 GB   2018-11-24 19:36 
   Битва статей / Battle of the Sexes (2017) Electroz  8 / 4   1.46 GB   2018-11-15 23:13 
   Битва статей / Battle of the Sexes (2017) Ukr/Eng | Sub Ukr/Eng igor911  14 / 0   2.19 GB   2018-01-15 03:46 
0mage0 
VIP


З нами з: 06.10.15
Востаннє: 18.12.18
Повідомлень: 412

2018-02-05 08:48  
Непоганий фільм, гарно знятий, багато сцен відповідають справжнім фото тих часів. Дівка молодець була, можна сказати, з чоловічим характером Happy
Uberwinder 
VIP


З нами з: 18.11.16
Востаннє: 19.12.18
Повідомлень: 268

2018-04-11 20:16  
Як на мене, то рівень фільму вище середнього, але на свій рейтинг не тягне.
Wensun 
Свій


З нами з: 20.01.09
Востаннє: 17.12.18
Повідомлень: 117

2018-11-27 10:15  
кіно можна було помістити в 1.20 хв. перші 40 хв можна пропустити зразу, і та гамериканська лгбт вже дістала. без тих своїх збочинців кіна не можуть зняти. 3/10.
staf777 
Попереджень: 1
Попереджень: 1 


З нами з: 16.11.16
Востаннє: 19.12.18
Повідомлень: 1940

2018-12-03 17:08  
Замінив доріжку на 
agamem 
Новенький


З нами з: 24.05.12
Востаннє: 18.12.18
Повідомлень: 22

2018-12-03 18:23  
Це швидше змагання віку - 55 vs 29. Те, що можна в 30, в 55 буде важче - роки беруть своє.

Західний світ сильно фемінізується.

arikalumoto 
Новенький


З нами з: 03.03.15
Востаннє: 19.12.18
Повідомлень: 19

2018-12-04 19:38  
staf777
Превью скріншотів та лінки на повні різні...

staf777 
Попереджень: 1
Попереджень: 1 


З нами з: 16.11.16
Востаннє: 19.12.18
Повідомлень: 1940

2018-12-05 11:40  
arikalumoto
Це мабуть третій парашут був зайвий - виправив ...

Ваш часовий пояс: GMT + 2 Години

Нова тема   Відповісти