Печера жовтого пса / Die Höhle des gelben Hundes (2005) Mng | sub Ukr/Eng

Нові коментарі

Нова тема   Відповісти
Автор Повідомлення
yurekkk 
Свій


З нами з: 11.12.12
Востаннє: 28.11.20
Повідомлень: 105

2018-01-15 20:52  
Печера жовтого пса / Die Höhle des gelben Hundes (2005) Mng | sub Ukr/Eng

Печера жовтого пса / Die Höhle des gelben Hundes (2005) Mng | sub Ukr/Eng


Жанр: Драма
Країна: Монголія, Німеччина



Кінокомпанія: Hochschule für Fernsehen und Film München (HFF)
Режисер: Б'ямбасурен Даваа (Byambasuren Davaa)
Актори: Батчулуун Уржіндорж (Batchuluun Urjindorj), Буяндулам Дарамдаді (Buyandulam Daramdadi), Нансал Батчулуун (Nansal Batchuluun), Нансалмаа Батчулуун (Nansalmaa Batchuluun), Баббаяр Батчулуун (Babbayar Batchuluun), Церенпуцаґ Іш (Tserenpuntsag Ish)

Сюжет:
Зворушлива історія дружби маленької дівчинки з родини кочовиків з собакою. Ця глибока та добра стрічка нікого не залишить байдужим. А фантастичні краєвиди безкраїх монгольських степів і цікаві сцени побуту місцевих пастухів стануть приємним бонусом.


Тривалість: 01:29:24
Якість:
Відео:
кодек:
розмір кадру: 672 х 368
бітрейт: 1750 кб/с

Аудіо:
мова: монгольська
переклад: оригінал
кодек: MP3
бітрейт: 202 кб/с

Субтитри:
мова: українська
тип: програмні (м'які)
формат: *.srt
переклад: yurekkk з англійських субтитрів
Скріншоти
Info
Unique ID: 205810275071500544312975822999819592253 (0x9AD59DFE58D6F11FBDAA925FC5C7223D)
Complete name: D:\Розваги\Фільми\Печера жовтого пса\Yellow Dog Cave.
Format:
Format version: Version 2
File size: 1.24 GiB
Duration: 1 h 29 min
Overall bit rate mode: Variable
Overall bit rate: 1 991 kb/s
Encoded date: UTC 2018-01-15 17:11:46
Writing application: v5.6.0 ('Kenya Kane') built on May 27 2012 16:44:04
Writing library: libebml v1.2.3 + v1.3.0

ID: 1
Format: MPEG-4 Visual
Format profile: Advanced [email protected]
Format settings, BVOP: 1
Format settings, QPel: No
Format settings, GMC: No warppoints
Format settings, Matrix: Default (MPEG)
Codec ID: V_MS/VFW/FOURCC/
Codec ID/Hint:
Duration: 1 h 29 min
Bit rate: 1 750 kb/s
Width: 672 pixels
Height: 368 pixels
Display aspect ratio: 1.85:1
Frame rate mode: Constant
Frame rate: 25.000 FPS
Color space: YUV
Chroma subsampling: 4:2:0
Bit depth: 8 bits
Scan type: Progressive
Compression mode: Lossy
Bits/(Pixel*Frame): 0.283
Stream size: 1.09 GiB (88%)
Writing library: 1.2.0.dev47 (UTC 2006-11-01)
Default: Yes
Forced: No

ID: 2
Format: MPEG Audio
Format version: Version 1
Format profile: Layer 3
Codec ID: A_MPEG/L3
Codec ID/Hint: MP3
Duration: 1 h 29 min
Bit rate mode: Variable
Bit rate: 202 kb/s
Minimum bit rate: 32.0 kb/s
Channel(s): 2 channels
Sampling rate: 48.0 kHz
Compression mode: Lossy
Delay relative to video: 672 ms
Stream size: 129 MiB (10%)
Writing library: LAME3.99a
Encoding settings: -m s -V 2 -q 0 -lowpass 18.5 --vbr-new -b 32
Default: Yes
Forced: No

ID: 3
Format: UTF-8
Codec ID: S_TEXT/UTF8
Codec ID/Info: UTF-8 Plain Text
Language: Ukrainian
Default: Yes
Forced: Yes

ID: 4
Format: UTF-8
Codec ID: S_TEXT/UTF8
Codec ID/Info: UTF-8 Plain Text
Language: English
Default: No
Forced: No
Особиста оцінка: 10 - без зайвих вагань рекомендую всім!


Золотий реліз (завантажене не впливає на рейтинг)
 Трекер:    Зареєстрований   

Завантажити / скачати фільм українською



відео для новачків



 Зареєстрований:   2018-01-15 20:52
 Розмір:   1.24 GB 
 Оцінка фільму:   9.3/10 (Голосів: 3)
   
perepadia 
VIP


З нами з: 27.10.08
Востаннє: 29.11.20
Повідомлень: 306

2018-01-15 23:54  
Гарне кіно! Якби ж то хтось озвучив!
yurekkk 
Свій


З нами з: 11.12.12
Востаннє: 28.11.20
Повідомлень: 105

2018-01-16 09:15  
perepadia
На жаль, не маю технічних можливостей для озвучення. Та й, по правді, мені більше до вподоби дивитися мовою оригіналу з субтитрами — тоді чуєш голоси акторів, краще занурення в атмосферу тощо. Але кожному своє. Якщо хтось озвучить, то я тільки радітиму — хай будуть різні варіанти.

11FrYkT 
Модератор відео


З нами з: 20.02.11
Востаннє: 29.11.20
Повідомлень: 7037

2018-01-16 18:40  
yurekkk , мінімун 1 скріншот має бути з субтитрами, також додайте медіаінфо бо є сумніви в кодеках
yurekkk 
Свій


З нами з: 11.12.12
Востаннє: 28.11.20
Повідомлень: 105

2018-01-16 19:57  
11FrYkT
Додав. Тип кодека виправив також.

Форкуш 
VIP


З нами з: 03.02.10
Востаннє: 29.11.20
Повідомлень: 2882

2018-02-12 00:50  
Справжнє, яскраве і життєве. Монгола мені нагадує... 8/10
Ваш часовий пояс: GMT + 2 Години

Нова тема   Відповісти