Дюнкерк / Dunkirk (2017) UHD Remux 4K 2160p [IMAX] Ukr/Eng | Sub Eng

Нові коментарі

Нова тема   Відповісти
Автор Повідомлення
Babamin 
Частий відвідувач


З нами з: 29.12.15
Востаннє: 23.02.18
Повідомлень: 42

2018-01-15 16:33  
Дюнкерк / Dunkirk (2017) UHD Remux 4K 2160p [IMAX] Ukr/Eng | Sub Eng

Дюнкерк / Dunkirk (2017) UHD Remux 4K 2160p [IMAX] Ukr/Eng | Sub Eng
«Подія, що змінила світ»
Фільм заснований на реальних подіях.



Жанр: військовий, драма, історичний
Країна: США, Велика Британія, Франція, Нідерланди



Кінокомпанія: Warner Bros. Pictures, Studio Canal, Canal+
Режисер: Крiстофер Нолан
Актори: Фіонн Вайтгед, Том Ґлінн-Карні, Джек Лавден, Гаррі Стайлз, Анейрін Барнард, Кеннет Брана, Джеймс Д'Арсі, Том Гарді, Марк Райленс, Кіліан Мерфі, Вільям Аттенборо та інші

Сюжет:
Одна з найяскравіших сторінок в історії Другої Світової Війни. Сотні тисяч французьких, бельгійських та англійських солдатів опинилися притиснутими німецькими військами спиною до Атлантичного океану поблизу від Дюнкерка. Здавалося б, у них немає ні єдиного шансу, щоб піти звідти живими і не в полоні. В цей час повітря повинно об'єднатися з землею, море із сушею, військові з цивільними. Саме завдяки підтримці авіації, яка кожен день відправляла сотні літаків на захист військ, саме завдяки звичайним торговельним судам і катерам місцевого населення у сотень тисяч солдатів з'явилася надія на повернення додому.


Тривалість: 01:46:38
Якість: 4K UltraHD Remux 2160p [IMAX]
Контейнер:

Відео:
кодек: H.265
розмір кадру: 3840 х 2160
бітрейт: 58,2 Мб/с
бітова глибина: 10 біт
кольоровий простір: BT.2020 (HDR)

Аудіо # 1:
мова: українська
переклад: професійний дубльований
кодек: 2.0
бітрейт: 192 кб/с

Аудіо # 2:
мова: англійська
переклад: оригінал
кодек: -HD MA 5.1
бітрейт: 2411 кб/с

Аудіо # 3:
мова: англійська
переклад: оригінал
кодек: 5.1
бітрейт: 640 кб/с

Субтитри # 1: (форсовані)
мова: українська
тип: програмні (м'які)
формат: *.srt

Субтитри # 2-3:
мова: англійська (повні, SDH)
тип: програмні (м'які)
формат: *.srt
Info:
Complete name : DUNKIRK.(2017).UHD.HDR.REMUX.HEVC.4K.2160p-Toloka.
Format :
Format version : Version 4 / Version 2
File size : 45.8 GiB
Duration : 1 h 46 min
Overall bit rate : 61.5 Mb/s
Movie name : DUNKIRK.(2017).UHD.HDR.REMUX.HEVC.4K.2160p-Toloka
Encoded date : UTC 2018-01-15 12:13:03
Writing application : mkvmerge v19.0.0 ('Brave Captain') 64-bit
Writing library : libebml v1.3.5 + libmatroska v1.4.8
Cover : Yes
Attachments : cover.jpg

Video
ID : 1
Format : HEVC
Format/Info : High Efficiency Video Coding
Format profile : Main [email protected]@High
Codec ID : V_MPEGH/ISO/HEVC
Duration : 1 h 46 min
Bit rate : 58.2 Mb/s
Width : 3 840 pixels
Height : 2 160 pixels
Display aspect ratio : 16:9
Frame rate mode : Constant
Frame rate : 23.976 (24000/1001) FPS
Color space : YUV
Chroma subsampling : 4:2:0 (Type 2)
Bit depth : 10 bits
Bits/(Pixel*Frame) : 0.293
Stream size : 43.4 GiB (95%)
Default : Yes
Forced : No
Color range : Limited
Color primaries : BT.2020
Transfer characteristics : PQ
Matrix coefficients : BT.2020 non-constant
Mastering display color primaries : R: x=0.680000 y=0.320000, G: x=0.265000 y=0.690000, B: x=0.150000 y=0.060000, White point: x=0.312700 y=0.329000
Mastering display luminance : min: 0.0050 cd/m2, max: 4000.0000 cd/m2
Maximum Content Light Level : 323 cd/m2
Maximum Frame-Average Light Level : 144 cd/m2

Audio #1
ID : 2
Format : AC-3
Format/Info : Audio Coding 3
Codec ID : A_AC3
Duration : 1 h 46 min
Bit rate mode : Constant
Bit rate : 192 kb/s
Channel(s) : 2 channels
Channel positions : Front: L R
Sampling rate : 48.0 kHz
Frame rate : 31.250 FPS (1536 SPF)
Bit depth : 16 bits
Compression mode : Lossy
Stream size : 146 MiB (0%)
Title : Dub [Postmodern, Megogo]
Language : Ukrainian
Service kind : Complete Main
Default : Yes
Forced : No

Audio #2
ID : 3
Format :
Format/Info : Digital Theater Systems
Format profile : MA / Core
Codec ID : A_DTS
Duration : 1 h 46 min
Bit rate mode : Variable / Constant
Bit rate : 2 411 kb/s / 1 509 kb/s
Channel(s) : 6 channels
Channel positions : Front: L C R, Side: L R, LFE
Sampling rate : 48.0 kHz
Frame rate : 93.750 FPS (512 SPF)
Bit depth : 16 bits
Compression mode : Lossless / Lossy
Stream size : 1.80 GiB (4%)
Language : English
Default : No
Forced : No

Audio #3
ID : 4
Format : AC-3
Format/Info : Audio Coding 3
Codec ID : A_AC3
Duration : 1 h 46 min
Bit rate mode : Constant
Bit rate : 640 kb/s
Channel(s) : 6 channels
Channel positions : Front: L C R, Side: L R, LFE
Sampling rate : 48.0 kHz
Frame rate : 31.250 FPS (1536 SPF)
Bit depth : 16 bits
Compression mode : Lossy
Stream size : 488 MiB (1%)
Language : English
Service kind : Complete Main
Default : No
Forced : No

Text #1
ID : 5
Format : UTF-8
Codec ID : S_TEXT/UTF8
Codec ID/Info : UTF-8 Plain Text
Duration : 1 h 40 min
Bit rate : 2 b/s
Count of elements : 22
Stream size : 1.49 KiB (0%)
Title : forced
Language : Ukrainian
Default : Yes
Forced : Yes

Text #2
ID : 6
Format : UTF-8
Codec ID : S_TEXT/UTF8
Codec ID/Info : UTF-8 Plain Text
Duration : 1 h 36 min
Bit rate : 26 b/s
Count of elements : 693
Stream size : 18.5 KiB (0%)
Title : full
Language : English
Default : No
Forced : No

Text #3
ID : 7
Format : UTF-8
Codec ID : S_TEXT/UTF8
Codec ID/Info : UTF-8 Plain Text
Duration : 1 h 45 min
Bit rate : 29 b/s
Count of elements : 859
Stream size : 22.7 KiB (0%)
Title : SDH
Language : English
Default : No
Forced : No

Menu
00:00:00.000 : en:Chapter 1
00:08:51.364 : en:Chapter 2
00:20:13.754 : en:Chapter 3
00:29:07.620 : en:Chapter 4
00:42:35.261 : en:Chapter 5
00:52:48.206 : en:Chapter 6
01:04:32.827 : en:Chapter 7
01:12:50.824 : en:Chapter 8
01:25:55.024 : en:Chapter 9
01:33:23.347 : en:Chapter 10
01:39:13.906 : en:Chapter 11
Скріншоти:






Джерело:
Українська доріжка - uafilm.tv, Electroz
Подяка пану igor911 за українські форсовані субтитри


Золотий реліз (завантажене не впливає на рейтинг)
 Трекер:    Зареєстрований   

Завантажити / скачати фільм українською



відео для новачків



 Зареєстрований:   2018-01-15 16:33
 Розмір:   45.78 GB 
 Оцінка фільму:   9.5/10 (Голосів: 15)
   
Інші релізи
   Дюнкерк / Dunkirk (2017) UHD 4K 2160p [IMAX] Ukr/Eng | Sub Eng Babamin  8 / 0   13.45 GB   2018-01-15 11:15 
   Дюнкерк / Dunkirk (2017) Remux 1080p Ukr/Eng | Sub Eng Dr.S  50 / 1   26.13 GB   2017-12-16 18:33 
   Дюнкерк / Dunkirk (2017) AVC [IMAX] Ukr/Eng | Sub Eng 11FrYkT  189 / 3   2.18 GB   2017-12-14 18:03 
   Дюнкерк / Dunkirk (2017) 720p [IMAX] Ukr/Eng | Sub Eng igor911  118 / 6   5.83 GB   2017-12-14 11:37 
   Дюнкерк / Dunkirk (2017) Covenant  180 / 1   1.45 GB   2017-12-14 11:06 
   Дюнкерк / Dunkirk (2017) 1080p [IMAX] Ukr/Eng | Sub Eng Electroz  84 / 1   10.3 GB   2017-12-13 21:53 
Babamin 
Частий відвідувач


З нами з: 29.12.15
Востаннє: 23.02.18
Повідомлень: 42

2018-01-15 23:43  
volkoff_roman
Дивися щоб чесно було Wide grin

Ваш часовий пояс: GMT + 2 Години

Нова тема   Відповісти