Той, що біжить лабіринтом / The Maze Runner (2014) Remux 1080p Ukr/Eng | Sub Ukr/Eng

Нові коментарі

Нова тема   Відповісти
Автор Повідомлення
staf777 
Попереджень: 1
Попереджень: 1 


З нами з: 16.11.16
Востаннє: 16.10.18
Повідомлень: 1632

2018-01-15 13:53  
Той, що біжить лабіринтом / The Maze Runner (2014) Remux 1080p Ukr/Eng | Sub Ukr/Eng

Той, що біжить лабіринтом / The Maze Runner (2014) Remux 1080p Ukr/Eng | Sub Ukr/Eng

«Тільки не зупиняйся»



Жанр: фантастика, бойовик, трилер, детектив
Країна: США, Канада, Велика Британія



Кінокомпанія: 20th Century Fox, Dayday Films, Gotham Group, The, Ingenious Media, Temple Hill Entertainment, TSG Entertainment
Режисер: Вес Болл / Wes Ball
Актори: Ділан О'Брайен / Dylan O'Brien, Кая Скоделаріо / Kaya Scodelario, Вілл Поултер / Will Poulter, Томас Сенгстер / Thomas Sangster, Патрішія Кларксон / Patricia Clarkson, Кі Гонґ Лі / Ki Hong Lee, Амл Амін / Aml Ameen, Дон МакМанус / Don McManus, Джо Адлер / Joe Adler, Блейк Купер / Blake Cooper та інші.

Сюжет:
Екранізація бестселера Джеймса Дашнера «Той, що біжить лабіринтом»

Головний герой - підліток Томас, який нічого не пам'ятає, крім свого імені. Він опиняється серед 60 підлітків, які виживають в замкнутому просторі. Група хлопців проживає в «Притулку» вже два роки і вони намагаються знайти вихід з лабіринту. Коли герої вже починають втрачати надію, з'являється дівчинка в стані коми, але з дивною запискою.


Тривалість: 01:53:26
Якість: Remux 1080p
Відео:
кодек:
розмір кадру: 1920 х 1080
бітрейт: 23,3 Mб/с

Аудіо # 1:
мова: українська
переклад: професійний дубльований Той, що біжить лабіринтом / The Maze Runner (2014) Remux 1080p Ukr/Eng | Sub Ukr/Eng
кодек: 2.0
бітрейт: 192 кб/с
Інформація про дубляж
Переклад: Надія Бойван
Режисер дубляжу: Катерина Брайковська
Звукорежисер: Олександр Мостовенко
Ролі дублювали: Андрій Федінчик, Юрій Сосков, Андрій Соболєв, Марина Локтіонова, Дмитро Гаврилов, Денис Капустін, Богдан Бащенко, Дмитро Сова, Роман Макотерскій, Ірина Дорошенко, Павло Лі, Валентин Музиченко та інші.
Фільм дубльовано студією Postmodern.
Аудіо # 2:
мова: англійська
переклад: оригінал
кодек: -HD MA 7.1
бітрейт: 5640 кб/с

Аудіо # 3:
мова: англійська
переклад: описова
кодек: 5.1
бітрейт: 448 кб/с

Аудіо # 4:
мова: англійська
переклад: коментарі
кодек: 2.0
бітрейт: 224 кб/с

Субтитри # 1:
мова: українська
тип: програмні (м'які)
формат: *.srt

Субтитри # 2-5: (повні, SDH, SDH кольорові, коментарі)
мова: англійська
тип: програмні (м'які)
формат: *.srt
Info
Код:
General
Unique ID                                : 187849583324933532746760668017109008029 (0x8D5283858DB5886384D90EB39AB07E9D)
Complete name                            : K:\Фільми HD\Фантастика\The Maze Runner (2014)Remux 1080p [Ukr][Eng] [Sub Ukr Eng][Hurtom].
Format                                   :
Format version                           : Version 4 / Version 2
File size                                : 23.6 GiB
Duration                                 : 1 h 53 min
Overall bit rate mode                    : Variable
Overall bit rate                         : 29.8 Mb/s
Movie name                               : The Maze Runner (2014) Remux 1080p [Ukr][Eng] [Sub UkrEng][Hurtom]
Encoded date                             : UTC 2018-01-15 09:47:10
Writing application                      : v9.8.0 ('Kuglblids') 64bit
Writing library                          : libebml v1.3.4 + v1.4.5
Attachments                              : The-Maze-Runner.jpg

Video
ID                                       : 1
Format                                   : AVC
Format/Info                              : Advanced Video Codec
Format profile                           : [email protected]
Format settings, CABAC                   : Yes
Format settings, ReFrames                : 2 frames
Codec ID                                 : V_MPEG4/ISO/AVC
Duration                                 : 1 h 53 min
Bit rate mode                            : Variable
Bit rate                                 : 23.3 Mb/s
Width                                    : 1 920 pixels
Height                                   : 1 080 pixels
Display aspect ratio                     : 16:9
Frame rate mode                          : Constant
Frame rate                               : 23.976 (24000/1001) FPS
Color space                              : YUV
Chroma subsampling                       : 4:2:0
Bit depth                                : 8 bits
Scan type                                : Progressive
Bits/(Pixel*Frame)                       : 0.468
Stream size                              : 18.4 GiB (78%)
Title                                    : The Maze Runner (2014)
Language                                 : English
Default                                  : Yes
Forced                                   : No

Audio #1
ID                                       : 2
Format                                   : AC-3
Format/Info                              : Audio Coding 3
Mode extension                           : CM (complete main)
Format settings, Endianness              : Big
Codec ID                                 : A_AC3
Duration                                 : 1 h 53 min
Bit rate mode                            : Constant
Bit rate                                 : 192 kb/s
Channel(s)                               : 2 channels
Channel positions                        : Front: L R
Sampling rate                            : 48.0 kHz
Frame rate                               : 31.250 FPS (1536 spf)
Bit depth                                : 16 bits
Compression mode                         : Lossy
Stream size                              : 156 MiB (1%)
Title                                    : 2.0 @ 192 kbps - DUB, iTunes
Language                                 : Ukrainian
Default                                  : Yes
Forced                                   : Yes

Audio #2
ID                                       : 3
Format                                   :
Format/Info                              : Digital Theater Systems
Format profile                           : MA / ES Matrix / Core
Mode                                     : 16
Format settings, Endianness              : Big
Codec ID                                 : A_DTS
Duration                                 : 1 h 53 min
Bit rate mode                            : Variable / Constant / Constant
Bit rate                                 : 5 640 kb/s / 1 509 kb/s / 1 509 kb/s
Channel(s)                               : 8 channels / 7 channels / 6 channels
Channel positions                        : Front: L C R, Side: L R, Back: L R, LFE / Front: L C R, Side: L R, Back: C, LFE / Front: L C R, Side: L R, LFE
Sampling rate                            : 48.0 kHz
Frame rate                               : 93.750 FPS (512 spf)
Bit depth                                : 24 bits
Compression mode                         : Lossless / Lossy / Lossy
Stream size                              : 4.47 GiB (19%)
Title                                    : 7.1
Language                                 : English
Default                                  : No
Forced                                   : No

Audio #3
ID                                       : 4
Format                                   : AC-3
Format/Info                              : Audio Coding 3
Mode extension                           : CM (complete main)
Format settings, Endianness              : Big
Codec ID                                 : A_AC3
Duration                                 : 1 h 53 min
Bit rate mode                            : Constant
Bit rate                                 : 448 kb/s
Channel(s)                               : 6 channels
Channel positions                        : Front: L C R, Side: L R, LFE
Sampling rate                            : 48.0 kHz
Frame rate                               : 31.250 FPS (1536 spf)
Bit depth                                : 16 bits
Compression mode                         : Lossy
Stream size                              : 364 MiB (2%)
Title                                    : 5.1 @ 448 kbps - Descriptive
Language                                 : English
Default                                  : No
Forced                                   : No

Audio #4
ID                                       : 5
Format                                   : AC-3
Format/Info                              : Audio Coding 3
Mode extension                           : CM (complete main)
Format settings, Endianness              : Big
Codec ID                                 : A_AC3
Duration                                 : 1 h 53 min
Bit rate mode                            : Constant
Bit rate                                 : 224 kb/s
Channel(s)                               : 2 channels
Channel positions                        : Front: L R
Sampling rate                            : 48.0 kHz
Frame rate                               : 31.250 FPS (1536 spf)
Bit depth                                : 16 bits
Compression mode                         : Lossy
Stream size                              : 182 MiB (1%)
Title                                    : 2.0 @ 224 kbps - Commentary by Wes Ball and T.S. Nowlin
Language                                 : English
Default                                  : No
Forced                                   : No

Text #1
ID                                       : 6
Format                                   : UTF-8
Codec ID                                 : S_TEXT/UTF8
Codec ID/Info                            : UTF-8 Plain Text
Duration                                 : 1 h 45 min
Bit rate                                 : 65 b/s
Count of elements                        : 1211
Stream size                              : 50.6 KiB (0%)
Language                                 : Ukrainian
Default                                  : No
Forced                                   : No

Text #2
ID                                       : 7
Format                                   : UTF-8
Codec ID                                 : S_TEXT/UTF8
Codec ID/Info                            : UTF-8 Plain Text
Duration                                 : 1 h 44 min
Bit rate                                 : 40 b/s
Count of elements                        : 1234
Stream size                              : 31.1 KiB (0%)
Language                                 : English
Default                                  : No
Forced                                   : No

Text #3
ID                                       : 8
Format                                   : UTF-8
Codec ID                                 : S_TEXT/UTF8
Codec ID/Info                            : UTF-8 Plain Text
Duration                                 : 1 h 45 min
Bit rate                                 : 47 b/s
Count of elements                        : 1529
Stream size                              : 36.7 KiB (0%)
Title                                    : SDH
Language                                 : English
Default                                  : No
Forced                                   : No

Text #4
ID                                       : 9
Format                                   : UTF-8
Codec ID                                 : S_TEXT/UTF8
Codec ID/Info                            : UTF-8 Plain Text
Duration                                 : 1 h 45 min
Bit rate                                 : 64 b/s
Count of elements                        : 1529
Stream size                              : 49.8 KiB (0%)
Title                                    : SDH-COLORED
Language                                 : English
Default                                  : No
Forced                                   : No

Text #5
ID                                       : 10
Format                                   : UTF-8
Codec ID                                 : S_TEXT/UTF8
Codec ID/Info                            : UTF-8 Plain Text
Duration                                 : 1 h 48 min
Bit rate                                 : 183 b/s
Count of elements                        : 2554
Stream size                              : 145 KiB (0%)
Title                                    : Commentary
Language                                 : English
Default                                  : No
Forced                                   : No

Menu
00:00:00.000                             : en:Chapter 1
00:03:12.650                             : en:Chapter 2
00:07:15.977                             : en:Chapter 3
00:10:25.249                             : en:Chapter 4
00:14:15.563                             : en:Chapter 5
00:17:21.248                             : en:Chapter 6
00:19:33.338                             : en:Chapter 7
00:23:21.024                             : en:Chapter 8
00:24:36.391                             : en:Chapter 9
00:28:13.108                             : en:Chapter 10
00:31:26.009                             : en:Chapter 11
00:34:12.050                             : en:Chapter 12
00:37:11.812                             : en:Chapter 13
00:41:00.875                             : en:Chapter 14
00:42:16.617                             : en:Chapter 15
00:45:47.453                             : en:Chapter 16
00:48:31.825                             : en:Chapter 17
00:52:57.799                             : en:Chapter 18
00:55:21.776                             : en:Chapter 19
00:57:58.808                             : en:Chapter 20
00:59:31.150                             : en:Chapter 21
01:01:35.274                             : en:Chapter 22
01:05:13.910                             : en:Chapter 23
01:08:42.409                             : en:Chapter 24
01:12:14.246                             : en:Chapter 25
01:14:22.833                             : en:Chapter 26
01:20:27.823                             : en:Chapter 27
01:22:25.649                             : en:Chapter 28
01:25:38.174                             : en:Chapter 29
01:29:41.584                             : en:Chapter 30
01:33:49.457                             : en:Chapter 31
01:36:43.255                             : en:Chapter 32
01:39:33.425                             : en:Chapter 33
01:43:05.596                             : en:Chapter 34
01:45:08.218                             : en:Chapter 35
01:46:12.657                             : en:Chapter 36

Скріншоти






Джерело:
Особиста оцінка: 0 - не дивився
За субтитри подяка пану sergey_n з HDCLUBу


Золотий реліз (завантажене не впливає на рейтинг)
 Трекер:    Зареєстрований   

Завантажити / скачати фільм українською



відео для новачків



 Зареєстрований:   2018-01-15 13:55
 Розмір:   23.6 GB 
 Оцінка фільму:   8.5/10 (Голосів: 11)
   
Siberex 
Новенький


З нами з: 23.05.15
Востаннє: 21.09.18
Повідомлень: 2

2018-04-15 19:45  
Дайте швидкості будь ласка Happy
Ваш часовий пояс: GMT + 2 Години

Нова тема   Відповісти