Дюнкерк / Dunkirk (2017) UHD 4K 2160p [IMAX] Ukr/Eng | Sub Eng

Нові коментарі

Нова тема   Відповісти
Автор Повідомлення
Babamin 
Частий відвідувач


З нами з: 29.12.15
Востаннє: 23.02.18
Повідомлень: 42

2018-01-15 11:15  
Дюнкерк / Dunkirk (2017) UHD 4K 2160p [IMAX] Ukr/Eng | Sub Eng

Дюнкерк / Dunkirk (2017) UHD 4K 2160p [IMAX] Ukr/Eng | Sub Eng


Жанр: військовий, драма, історичний
Країна: США, Велика Британія, Франція, Нідерланди



Кінокомпанія: Warner Bros. Pictures, Studio Canal, Canal+
Режисер: Крiстофер Нолан
Актори: Фіонн Вайтгед, Том Ґлінн-Карні, Джек Лавден, Гаррі Стайлз, Анейрін Барнард, Кеннет Брана, Джеймс Д'Арсі, Том Гарді, Марк Райленс, Кіліан Мерфі, Вільям Аттенборо та інші

Сюжет:
Одна з найяскравіших сторінок в історії Другої Світової Війни. Сотні тисяч французьких, бельгійських та англійських солдатів опинилися притиснутими німецькими військами спиною до Атлантичного океану поблизу від Дюнкерка. Здавалося б, у них немає ні єдиного шансу, щоб піти звідти живими і не в полоні. В цей час повітря повинно об'єднатися з землею, море із сушею, військові з цивільними. Саме завдяки підтримці авіації, яка кожен день відправляла сотні літаків на захист військ, саме завдяки звичайним торговельним судам і катерам місцевого населення у сотень тисяч солдатів з'явилася надія на повернення додому.


Тривалість: 01:46:38
Якість: UltraHD 4K 2160p
Контейнер:

Відео:
кодек: H.265
розмір кадру: 3840 х 2160
бітрейт: 17,2 Мб/с
бітова глибина: 10 біт
кольоровий простір: BT.2020 (HDR)

Аудіо # 1:
мова: українська
переклад: професійний дубльований
кодек: 2.0
бітрейт: 192 кб/с

Аудіо # 2:
мова: англійська
переклад: оригінал
кодек: 5.1
бітрейт: 640 кб/с

Субтитри # 1: (форсовані)
мова: українська
тип: програмні (м'які)
формат: *.srt

Субтитри # 2-3:
мова: англійська (повні, SDH)
тип: програмні (м'які)
формат: *.srt
Info:

Complete name : DUNKIRK.(2017).UHD.HDR..HEVC.4K.2160p-Toloka.
Format :
Format version : Version 4 / Version 2
File size : 13.4 GiB
Duration : 1 h 46 min
Overall bit rate : 18.1 Mb/s
Movie name : DUNKIRK.(2017).UHD.HDR..HEVC.4K.2160p-Toloka
Encoded date : UTC 2018-01-15 07:28:55
Writing application : mkvmerge v19.0.0 ('Brave Captain') 64-bit
Writing library : libebml v1.3.5 + libmatroska v1.4.8
Cover : Yes
Attachments : cover.jpg

Video
ID : 1
Format : HEVC
Format/Info : High Efficiency Video Coding
Format profile : Main [email protected]@High
Codec ID : V_MPEGH/ISO/HEVC
Duration : 1 h 46 min
Bit rate : 17.2 Mb/s
Width : 3 840 pixels
Height : 2 160 pixels
Display aspect ratio : 16:9
Frame rate mode : Constant
Frame rate : 23.976 (24000/1001) FPS
Color space : YUV
Chroma subsampling : 4:2:0 (Type 2)
Bit depth : 10 bits
Bits/(Pixel*Frame) : 0.087
Stream size : 12.8 GiB (95%)
Writing library : x265 2.6+26-b4edf9b44d23:[Windows][GCC 6.3.0][64 bit] 10bit
Encoding settings : cpuid=1105919 / frame-threads=3 / numa-pools=8 / wpp / no-pmode / no-pme / no-psnr / no-ssim / log-level=2 / input-csp=1 / input-res=3840x2160 / interlace=0 / total-frames=153404 / level-idc=51 / high-tier=1 / uhd-bd=0 / ref=4 / no-allow-non-conformance / repeat-headers / annexb / no-aud / no-hrd / info / hash=0 / no-temporal-layers / no-open-gop / min-keyint=23 / keyint=250 / gop-lookahead=0 / bframes=4 / b-adapt=2 / b-pyramid / bframe-bias=0 / rc-lookahead=48 / lookahead-slices=4 / scenecut=40 / radl=0 / no-intra-refresh / ctu=64 / min-cu-size=8 / no-rect / no-amp / max-tu-size=32 / tu-inter-depth=1 / tu-intra-depth=1 / limit-tu=0 / rdoq-level=2 / dynamic-rd=0.00 / no-ssim-rd / signhide / no-tskip / nr-intra=0 / nr-inter=0 / no-constrained-intra / no-strong-intra-smoothing / max-merge=5 / limit-refs=3 / limit-modes / me=3 / subme=7 / merange=57 / temporal-mvp / weightp / no-weightb / no-analyze-src-pics / deblock=0:0 / no-sao / no-sao-non-deblock / rd=4 / no-early-skip / no-rskip / no-fast-intra / no-tskip-fast / no-cu-lossless / no-b-intra / no-splitrd-skip / rdpenalty=0 / psy-rd=2.00 / psy-rdoq=2.00 / no-rd-refine / no-lossless / cbqpoffs=0 / crqpoffs=0 / rc=crf / crf=21.0 / qcomp=0.60 / qpstep=4 / stats-write=0 / stats-read=0 / vbv-maxrate=160000 / vbv-bufsize=160000 / vbv-init=0.9 / crf-max=0.0 / crf-min=0.0 / ipratio=1.20 / pbratio=1.10 / aq-mode=0 / aq-strength=0.00 / no-cutree / zone-count=0 / no-strict-cbr / qg-size=32 / no-rc-grain / qpmax=69 / qpmin=0 / no-const-vbv / sar=0 / overscan=0 / videoformat=5 / range=0 / colorprim=9 / transfer=16 / colormatrix=9 / chromaloc=1 / chromaloc-top=2 / chromaloc-bottom=2 / display-window=0 / master-display=G(13250,34500)B(7500,3000)R(34000,16000)WP(15635,16450)L(40000000,50) / max-cll=323,144 / min-luma=0 / max-luma=1023 / log2-max-poc-lsb=8 / vui-timing-info / vui-hrd-info / slices=1 / no-opt-qp-pps / no-opt-ref-list-length-pps / no-multi-pass-opt-rps / scenecut-bias=0.05 / no-opt-cu-delta-qp / no-aq-motion / hdr / no-hdr-opt / no-dhdr10-opt / analysis-save=(null) / analysis-load=(null) / analysis-reuse-level=5 / scale-factor=0 / refine-intra=0 / refine-inter=0 / refine-mv=0 / no-limit-sao / ctu-info=0 / no-lowpass-dct / refine-mv-type=0 / copy-pic=1
Language : English
Default : Yes
Forced : No
Color range : Limited
Color primaries : BT.2020
Transfer characteristics : PQ
Matrix coefficients : BT.2020 non-constant
Mastering display color primaries : R: x=0.680000 y=0.320000, G: x=0.265000 y=0.690000, B: x=0.150000 y=0.060000, White point: x=0.312700 y=0.329000
Mastering display luminance : min: 0.0050 cd/m2, max: 4000.0000 cd/m2
Maximum Content Light Level : 323 cd/m2
Maximum Frame-Average Light Level : 144 cd/m2

Audio #1
ID : 2
Format : AC-3
Format/Info : Audio Coding 3
Codec ID : A_AC3
Duration : 1 h 46 min
Bit rate mode : Constant
Bit rate : 192 kb/s
Channel(s) : 2 channels
Channel positions : Front: L R
Sampling rate : 48.0 kHz
Frame rate : 31.250 FPS (1536 SPF)
Bit depth : 16 bits
Compression mode : Lossy
Stream size : 146 MiB (1%)
Title : Dub [Postmodern, Megogo]
Language : Ukrainian
Service kind : Complete Main
Default : Yes
Forced : No

Audio #2
ID : 3
Format : AC-3
Format/Info : Audio Coding 3
Codec ID : A_AC3
Duration : 1 h 46 min
Bit rate mode : Constant
Bit rate : 640 kb/s
Channel(s) : 6 channels
Channel positions : Front: L C R, Side: L R, LFE
Sampling rate : 48.0 kHz
Frame rate : 31.250 FPS (1536 SPF)
Bit depth : 16 bits
Compression mode : Lossy
Stream size : 488 MiB (4%)
Language : English
Service kind : Complete Main
Default : No
Forced : No

Text #1
ID : 4
Format : UTF-8
Codec ID : S_TEXT/UTF8
Codec ID/Info : UTF-8 Plain Text
Duration : 1 h 40 min
Bit rate : 2 b/s
Count of elements : 22
Stream size : 1.49 KiB (0%)
Title : forced
Language : Ukrainian
Default : Yes
Forced : Yes

Text #2
ID : 5
Format : UTF-8
Codec ID : S_TEXT/UTF8
Codec ID/Info : UTF-8 Plain Text
Duration : 1 h 36 min
Bit rate : 26 b/s
Count of elements : 693
Stream size : 18.5 KiB (0%)
Title : full
Language : English
Default : No
Forced : No

Text #3
ID : 6
Format : UTF-8
Codec ID : S_TEXT/UTF8
Codec ID/Info : UTF-8 Plain Text
Duration : 1 h 45 min
Bit rate : 29 b/s
Count of elements : 859
Stream size : 22.7 KiB (0%)
Title : SDH
Language : English
Default : No
Forced : No

Menu
00:00:00.000 : en:Chapter 1
00:08:51.364 : en:Chapter 2
00:20:13.754 : en:Chapter 3
00:29:07.620 : en:Chapter 4
00:42:35.261 : en:Chapter 5
00:52:48.206 : en:Chapter 6
01:04:32.827 : en:Chapter 7
01:12:50.824 : en:Chapter 8
01:25:55.024 : en:Chapter 9
01:33:23.347 : en:Chapter 10
01:39:13.906 : en:Chapter 11
Скріншоти:





Джерело: &
Українська доріжка - uafilm.tv, Electroz
Подяка пану igor911 за українські форсовані субтитри


 Трекер:    Зареєстрований   

Завантажити / скачати фільм українською



відео для новачків



 Зареєстрований:   2018-01-15 11:15
 Розмір:   13.45 GB 
 Оцінка фільму:   8.7/10 (Голосів: 14)
   
Інші релізи
   Дюнкерк / Dunkirk (2017) UHD Remux 4K 2160p [IMAX] Ukr/Eng | Sub Eng Babamin  5 / 0   45.78 GB   2018-01-15 16:33 
   Дюнкерк / Dunkirk (2017) Remux 1080p Ukr/Eng | Sub Eng Dr.S  18 / 0   26.13 GB   2017-12-16 18:33 
   Дюнкерк / Dunkirk (2017) AVC [IMAX] Ukr/Eng | Sub Eng 11FrYkT  56 / 0   2.18 GB   2017-12-14 18:03 
   Дюнкерк / Dunkirk (2017) 720p [IMAX] Ukr/Eng | Sub Eng igor911  30 / 4   5.83 GB   2017-12-14 11:37 
   Дюнкерк / Dunkirk (2017) Covenant  66 / 0   1.45 GB   2017-12-14 11:06 
   Дюнкерк / Dunkirk (2017) 1080p [IMAX] Ukr/Eng | Sub Eng Electroz  28 / 0   10.3 GB   2017-12-13 21:53 
bohun 
VIP


З нами з: 21.03.09
Востаннє: 25.02.18
Повідомлень: 324

2018-01-15 12:21  
Клас.
А взагалі - Нолан оголосив раніше, що окрім Дюнкерка планується видання в 4K (ремастер) його раніших шедеврів - трилогії про Бетмена, Інтерстеллар, Початок, Престиж. Було б класно побачити її на Толоці

volkoff_roman 
Новенький


З нами з: 03.11.16
Востаннє: 20.02.18
Повідомлень: 4

2018-01-15 13:42  
Шкода, що зроблена повторна компресія (не ремукс).
Babamin 
Частий відвідувач


З нами з: 29.12.15
Востаннє: 23.02.18
Повідомлень: 42

2018-01-15 16:41  
volkoff_roman написано:
Шкода, що зроблена повторна компресія (не ремукс).

Та ні проблем, лише перехопи роздачу і не вирушай з неї. Готовий?
Дюнкерк / Dunkirk (2017) UHD Remux 4K 2160p [IMAX] Ukr/Eng | Sub Eng

volkoff_roman 
Новенький


З нами з: 03.11.16
Востаннє: 20.02.18
Повідомлень: 4

2018-01-15 19:24  
Babamin
Доведеться наздогнати втрачені дві години.

vodoliy76 
Новенький


З нами з: 17.10.10
Востаннє: 25.02.18
Повідомлень: 13

2018-01-15 21:34  
щось розмір підводть для 4к
Ваш часовий пояс: GMT + 2 Години

Нова тема   Відповісти