Відчайдушні напарники (Skiptrace) / Jue di tao wang (2016) 720p H.265 Ukr/Eng

Нові коментарі

Нова тема   Відповісти
Автор Повідомлення
-ПАН КОЦЬКИЙ- 
Новенький


З нами з: 27.11.17
Востаннє: 17.01.18
Повідомлень: 13

2018-01-14 18:29  
Відчайдушні напарники / Skiptrace / Jue di tao wang (2016) 720p H.265 Ukr/Eng

Відчайдушні напарники (Skiptrace) / Jue di tao wang (2016) 720p H.265 Ukr/Eng

Жанр: бойовик, трилер, комедія, кримінальний, пригодницький
Країна: Китай, Гонконг, США



Кінокомпанія: Cider Mill Pictures, Dasym Enetertainment, InterTitle Films, JC Group International, Talent International Film Cultural Company, Talent International Media
Режисер: Ренні Гарлін
Актори: Джекі Чан, Джонні Ноксвіл, Бінбін Фань, Ерік Цан, Ів Торрес, Вінстон Чао, Ен Джон-хун, Ши Ши, Майкл Вон, Ділан Ко

Сюжет:
Щоб знешкодити злочинний синдикат і врятувати свою племінницю, найчесніший коп повинен взяти в напарники красунчика-афериста. Вони повні протилежності, але у них одна небезпечна місія. Вони в бігах, але їм не уникнути один одного.


Тривалість: 01:47:41
Якість:
Відео: H.265 (HEVC)
розмір кадру: 1280 х 534
бітрейт: 2800 кб/с
бітова глибина: 10 біт
примітка: не буде відтворюватись на "залізних" програвачах без підтримки H.265 (HEVC)!

Аудіо # 1:
мова: українська
переклад: багатоголосий закадровий
кодек: 2.0
бітрейт: 192 кб/с

Аудіо # 2:
мова: англійська
переклад: оригінал
кодек: 5.1
бітрейт: 448 кб/с

Субтитри:
мова: англійська (під час діалогів кантонійською мовою)
тип: вбудовані (жорсткі)
Info
General
Unique ID : 262433568705048229685000863191497207537 (0xC56EDDE91ACEDE51658B9C1992446EF1)
Complete name : F:\SKIPTRACE.
Format :
Format version : Version 4 / Version 2
File size : 2.59 GiB
Duration : 1 h 47 min
Overall bit rate : 3 442 kb/s
Movie name : SKIPTRACE
Encoded date : UTC 2018-01-14 15:43:47
Writing application : mkvmerge v19.0.0 ('Brave Captain') 64-bit
Writing library : libebml v1.3.5 + libmatroska v1.4.8
Cover : Yes
Attachments : cover.skiptrace.jpg

Video
ID : 1
Format : HEVC
Format/Info : High Efficiency Video Coding
Format profile : Main [email protected]@Main
Codec ID : V_MPEGH/ISO/HEVC
Duration : 1 h 47 min
Bit rate : 2 800 kb/s
Width : 1 280 pixels
Height : 534 pixels
Display aspect ratio : 2.40:1
Frame rate mode : Constant
Frame rate : 23.976 (24000/1001) FPS
Color space : YUV
Chroma subsampling : 4:2:0
Bit depth : 10 bits
Bits/(Pixel*Frame) : 0.171
Stream size : 2.11 GiB (81%)
Writing library : x265 2.1+2-c0d91c2b4048:[Windows][GCC 6.2.0][64 bit] 10bit
Encoding settings : wpp / ctu=64 / min-cu-size=8 / max-tu-size=32 / tu-intra-depth=1 / tu-inter-depth=1 / me=1 / subme=2 / merange=57 / no-rect / no-amp / max-merge=2 / temporal-mvp / no-early-skip / rskip / rdpenalty=0 / no-tskip / no-tskip-fast / strong-intra-smoothing / no-lossless / no-cu-lossless / no-constrained-intra / no-fast-intra / open-gop / no-temporal-layers / interlace=0 / keyint=250 / min-keyint=23 / scenecut=40 / rc-lookahead=40 / lookahead-slices=0 / bframes=8 / bframe-bias=0 / b-adapt=2 / ref=5 / limit-refs=3 / no-limit-modes / weightp / no-weightb / aq-mode=1 / qg-size=32 / aq-strength=1.00 / cbqpoffs=0 / crqpoffs=0 / rd=3 / psy-rd=2.00 / rdoq-level=0 / psy-rdoq=0.00 / log2-max-poc-lsb=8 / no-rd-refine / signhide / deblock=-3:-3 / sao / no-sao-non-deblock / b-pyramid / cutree / no-intra-refresh / rc=2 / pass / bitrate=2799 / qcomp=0.60 / qpmin=0 / qpmax=69 / qpstep=4 / cplxblur=20.0 / qblur=0.5 / ipratio=1.40 / pbratio=1.30
Language : English
Default : Yes
Forced : Yes
Color range : Limited
Color primaries : BT.709
Transfer characteristics : BT.709
Matrix coefficients : BT.709

Audio #1
ID : 2
Format : AC-3
Format/Info : Audio Coding 3
Codec ID : A_AC3
Duration : 1 h 47 min
Bit rate mode : Constant
Bit rate : 192 kb/s
Channel(s) : 2 channels
Channel positions : Front: L R
Sampling rate : 48.0 kHz
Frame rate : 31.250 FPS (1536 SPF)
Bit depth : 16 bits
Compression mode : Lossy
Stream size : 148 MiB (6%)
Language : Ukrainian
Service kind : Complete Main
Default : Yes
Forced : Yes

Audio #2
ID : 3
Format : AC-3
Format/Info : Audio Coding 3
Codec ID : A_AC3
Duration : 1 h 47 min
Bit rate mode : Constant
Bit rate : 448 kb/s
Channel(s) : 6 channels
Channel positions : Front: L C R, Side: L R, LFE
Sampling rate : 48.0 kHz
Frame rate : 31.250 FPS (1536 SPF)
Bit depth : 16 bits
Compression mode : Lossy
Stream size : 344 MiB (13%)
Language : English
Service kind : Complete Main
Default : No
Forced : No
Скріншоти



УВАГА H.265 (HEVC)!
High Efficiency Video Coding HEVC (H.265) - це нове покоління енкодерів, яке створювалося в тому числі для 4К ТБ.
На сучасних "залізних" плеєрах не відтворюється (і не буде)
Аналогічно на телевізорах з вбудованим програвачем медіа
На смартТВ можливо, залежить від моделі (на універсальних арм процессорах так), необхідне відповідне ПЗ.
На PC та HTPC - так, необхідно оновити кодеки та програми відтворення (плеєри) - практично усі сучасні плеєри h265 вже підтримують.
Планшети, смартфони - так (відповідне ПЗ)
Джерело: &
Особиста оцінка: 10 - без зайвих вагань рекомендую всім!


 Трекер:    Зареєстрований   

Завантажити / скачати фільм українською



відео для новачків



 Зареєстрований:   2018-01-14 18:29
 Розмір:   2.59 GB 
 Оцінка фільму:   9.4/10 (Голосів: 7)
   
Ваш часовий пояс: GMT + 2 Години

Нова тема   Відповісти