Ігри патріотів / Patriot Games (1992) 720p 2xUkr/Eng | Sub Ukr/Eng

Нові коментарі

Нова тема   Відповісти
Автор Повідомлення
staf777 
Попереджень: 1
Попереджень: 1 


З нами з: 16.11.16
Востаннє: 21.01.18
Повідомлень: 578

2018-01-14 17:45  
Ігри патріотів / Patriot Games (1992) 720p 2xUkr/Eng | Sub Ukr/Eng

Ігри патріотів / Patriot Games (1992) 720p 2xUkr/Eng | Sub Ukr/Eng


Жанр: бойовик, трилер, драма, кримінал
Країна: США



Кінокомпанія: Mace Neufeld Productions, Paramount Pictures
Режисер: Філліп Нойс / Phillip Noyce
Актори: Га́ррісон Форд / Harrison Ford, Енн Арчер / Anne Archer, Патрік Берґін / Patrick Bergin, Шон Бін / Sean Bean, Тора Берч / Thora Birch, Джеймс Фокс / James Fox, Семюель Л. Джексон / Samuel L. Jackson, Поллі Вокер / Polly Walker, Дж. Е. Фрімен / J.E. Freeman, Джеймс Ерл Джонс / James Earl Jones та інші

Сюжет:
Колишній співробітник ЦРУ, а нині професор військово-морської академії США Джек Райан, перебуваючи у Лондоні з доповіддю, випадково стає свідком терористичного акту Ірландської республіканської армії проти королівської сім'ї. Райан запобігає трагедії, але ірландські терористи загрожують помститися. Небезпечна загроза нависає над Райаном, його дружиною і дочкою...


Тривалість: 01:56:44
Якість: 720p
Відео:
кодек:
розмір кадру: 1280x552
бітрейт: 5870 кб/с

Аудіо # 1:
мова: українська
переклад: багатоголосий закадровий
кодек: 2.0
бітрейт: 192 кб/с

Аудіо # 2:
мова: українська
переклад: багатоголосий закадровий
кодек: 2.0
бітрейт: 192 кб/с

Аудіо # 3:
мова: англійська
переклад: оригінал
кодек: 5.1
бітрейт: 640 кб/с

Субтитри:
мова: українська
тип: програмні (м'які)
формат: *.srt

Субтитри:
мова: англійська
тип: програмні (м'які)
формат: *.srt
Info
General
Unique ID : 220668070764728196256664603203670500888 (0xA6031FE0E8CEBA3C902DABA93DDDE618)
Complete name : P:\HD українською » Фільми в HD\Бойовик\Patriot Games (1992) 720p [2xUkr][Eng][Sub UkrEng][Hurtom].
Format :
Format version : Version 4 / Version 2
File size : 5.62 GiB
Duration : 1 h 56 min
Overall bit rate : 6 896 kb/s
Movie name : Patriot Games (1992) 720p / 2xUkr/Eng | Sub Ukr/Eng
Encoded date : UTC 2018-01-14 15:16:47
Writing application : mkvmerge v9.8.0 ('Kuglblids') 64bit
Writing library : libebml v1.3.4 + libmatroska v1.4.5

Video
ID : 1
Format : AVC
Format/Info : Advanced Video Codec
Format profile : [email protected]
Format settings, CABAC : Yes
Format settings, ReFrames : 9 frames
Codec ID : V_MPEG4/ISO/AVC
Duration : 1 h 56 min
Bit rate : 5 870 kb/s
Width : 1 280 pixels
Height : 552 pixels
Display aspect ratio : 2.35:1
Frame rate mode : Constant
Frame rate : 23.976 FPS
Color space : YUV
Chroma subsampling : 4:2:0
Bit depth : 8 bits
Scan type : Progressive
Bits/(Pixel*Frame) : 0.347
Stream size : 4.79 GiB (85%)
Title : Patriot Games (1992)
Writing library : core 110 r1804 e89c4cf
Encoding settings : cabac=1 / ref=9 / deblock=1:-3:-3 / analyse=0x3:0x133 / me=umh / subme=10 / psy=1 / psy_rd=1.00:0.00 / mixed_ref=1 / me_range=32 / chroma_me=1 / trellis=2 / 8x8dct=1 / cqm=0 / deadzone=21,11 / fast_pskip=0 / chroma_qp_offset=-2 / threads=12 / sliced_threads=0 / nr=0 / decimate=0 / interlaced=0 / constrained_intra=0 / bframes=8 / b_pyramid=2 / b_adapt=2 / b_bias=0 / direct=3 / weightb=1 / open_gop=0 / weightp=2 / keyint=250 / keyint_min=23 / scenecut=40 / intra_refresh=0 / rc_lookahead=60 / rc=2pass / mbtree=1 / bitrate=5870 / ratetol=1.0 / qcomp=0.60 / qpmin=0 / qpmax=51 / qpstep=4 / cplxblur=20.0 / qblur=0.5 / ip_ratio=1.40 / aq=1:1.00
Language : English
Default : No
Forced : No

Audio #1
ID : 2
Format : AC-3
Format/Info : Audio Coding 3
Mode extension : CM (complete main)
Format settings, Endianness : Big
Codec ID : A_AC3
Duration : 1 h 56 min
Bit rate mode : Constant
Bit rate : 192 kb/s
Channel(s) : 2 channels
Channel positions : Front: L R
Sampling rate : 48.0 kHz
Frame rate : 31.250 FPS (1536 spf)
Bit depth : 16 bits
Compression mode : Lossy
Stream size : 160 MiB (3%)
Language : Ukrainian
Default : Yes
Forced : Yes

Audio #2
ID : 3
Format : AC-3
Format/Info : Audio Coding 3
Mode extension : CM (complete main)
Format settings, Endianness : Big
Codec ID : A_AC3
Duration : 1 h 56 min
Bit rate mode : Constant
Bit rate : 192 kb/s
Channel(s) : 2 channels
Channel positions : Front: L R
Sampling rate : 48.0 kHz
Frame rate : 31.250 FPS (1536 spf)
Bit depth : 16 bits
Compression mode : Lossy
Stream size : 160 MiB (3%)
Language : Ukrainian
Default : No
Forced : No

Audio #3
ID : 4
Format : AC-3
Format/Info : Audio Coding 3
Mode extension : CM (complete main)
Format settings, Endianness : Big
Codec ID : A_AC3
Duration : 1 h 56 min
Bit rate mode : Constant
Bit rate : 640 kb/s
Channel(s) : 6 channels
Channel positions : Front: L C R, Side: L R, LFE
Sampling rate : 48.0 kHz
Frame rate : 31.250 FPS (1536 spf)
Bit depth : 16 bits
Compression mode : Lossy
Stream size : 534 MiB (9%)
Title : 5.1 @ 640 kbps
Language : English
Default : No
Forced : No

Text #1
ID : 5
Format : UTF-8
Codec ID : S_TEXT/UTF8
Codec ID/Info : UTF-8 Plain Text
Duration : 1 h 52 min
Bit rate : 67 b/s
Count of elements : 1117
Stream size : 55.5 KiB (0%)
Language : Ukrainian
Default : Yes
Forced : No

Text #2
ID : 6
Format : UTF-8
Codec ID : S_TEXT/UTF8
Codec ID/Info : UTF-8 Plain Text
Duration : 1 h 49 min
Bit rate : 43 b/s
Count of elements : 1198
Stream size : 35.1 KiB (0%)
Language : English
Default : No
Forced : No
Скріншоти



Джерело:
Виготовлення постеру: TPEM
Звукозапис з ТБ: Romario_O, POMEO, Bohdan237
Зведення звуку: taraskill1, Arsenfpu
Обробка субтитрів: igor911
Особиста оцінка: 0 - не дивився


Срібний реліз (на рейтинг впливає 50% завантаженого)
 Трекер:    Зареєстрований   

Завантажити / скачати фільм українською



відео для новачків



 Зареєстрований:   2018-01-14 17:45
 Розмір:   5.62 GB 
 Оцінка фільму:   4.8/10 (Голосів: 5)
   
Інші релізи
11FrYkT 
Модератор відео


З нами з: 20.02.11
Востаннє: 20.01.18
Повідомлень: 4273

2018-01-15 08:59  
staf777 написано:

[img][/img]
[img][/img]
[img][/img]
[img][/img]


скріншоти

staf777 
Попереджень: 1
Попереджень: 1 


З нами з: 16.11.16
Востаннє: 21.01.18
Повідомлень: 578

2018-01-15 09:11  
11FrYkT
Пробачте провтикав

Ваш часовий пояс: GMT + 2 Години

Нова тема   Відповісти