Смерть та життя Боббі Зі / The Death and Life of Bobby Z (2007) 1080p Ukr/Eng | Sub Eng

Нові коментарі

Нова тема   Відповісти
Автор Повідомлення
staf777 
Попереджень: 1
Попереджень: 1 


З нами з: 16.11.16
Востаннє: 23.10.18
Повідомлень: 1655

2018-01-14 17:44  
Смерть та життя Боббі Зі / The Death and Life of Bobby Z (2007) 1080p Ukr/Eng | Sub Eng

Смерть та життя Боббі Зі / The Death and Life of Bobby Z (2007) 1080p Ukr/Eng | Sub Eng


Жанр: бойовик, драма, кримінальний
Країна: США, Німеччина



Кінокомпанія: Millennium Films
Режисер: Джон Херцфелд / John Herzfeld
Актори: Пол Вокер / Paul Walker, Лоуренс Фішберн / Laurence Fishburne, Олівія Вайлд / Olivia Wilde, Джейсон Левіс / Jason Lewis, Джерод Банч / Jarrod Bunch, Джейсон Флемінг / Jason Flemyng, Джейкоб Варгас / Jacob Vargas, Кейт Керрадайн / Keith Carradine, Джош Стюарт / Josh Stewart та інші.

Сюжет:
Агент служби по боротьбі з наркотиками Тед Вантажу пропонує свободу ув'язненому вояці Тіму Кірні за однієї умови - той повинен «зіграти» недавно померлого наркобарона Боббі Зі для виконання однієї спецоперації. Але все йде не за планом: Тім втікає, прихопивши з собою сина Боббі Зі.


Тривалість: 01:36:52
Якість: 1080p
Відео:
кодек:
розмір кадру: 1920x804
бітрейт: 10,1 Mб/с

Аудіо # 1:
мова: українська
переклад: двоголосий закадровий
кодек: 5.1
бітрейт: 384 кб/с

Аудіо # 2:
мова: англійська
переклад: оригінал
кодек: 5.1
бітрейт: 448 кб/с

Субтитри:
мова: англійська
тип: програмні (м'які)
формат: *.srt
Info
General
Unique ID : 242905382777834062102948335375178104968 (0xB6BDE002424470468699198894058088)
Complete name : P:\HD українською » Фільми в HD\Бойовик\The Death and Life of Bobby Z (2007) 1080p[ Ukr][Eng[[Sub Eng][Hurtom].
Format :
Format version : Version 4 / Version 2
File size : 7.41 GiB
Duration : 1 h 36 min
Overall bit rate : 11.0 Mb/s
Movie name : The Death and Life of Bobby Z (2007) 1080p Ukr/Eng | Sub Eng[Hurtom]
Encoded date : UTC 2018-01-14 14:18:22
Writing application : v9.8.0 ('Kuglblids') 64bit
Writing library : libebml v1.3.4 + v1.4.5
Attachments : poster .png

Video
ID : 1
Format : AVC
Format/Info : Advanced Video Codec
Format profile : [email protected]
Format settings, CABAC : Yes
Format settings, ReFrames : 5 frames
Codec ID : V_MPEG4/ISO/AVC
Duration : 1 h 36 min
Bit rate : 10.1 Mb/s
Width : 1 920 pixels
Height : 804 pixels
Display aspect ratio : 2.40:1
Frame rate mode : Constant
Frame rate : 23.976 (24000/1001) FPS
Color space : YUV
Chroma subsampling : 4:2:0
Bit depth : 8 bits
Scan type : Progressive
Bits/(Pixel*Frame) : 0.273
Stream size : 6.85 GiB (92%)
Title : The Death and Life of Bobby Z (2007)
Writing library : core 146 r2538 121396c
Encoding settings : cabac=1 / ref=5 / deblock=1:-3:-3 / analyse=0x3:0x133 / me=umh / subme=11 / psy=1 / psy_rd=1.00:0.00 / mixed_ref=1 / me_range=32 / chroma_me=1 / trellis=2 / 8x8dct=1 / cqm=0 / deadzone=21,11 / fast_pskip=0 / chroma_qp_offset=-2 / threads=12 / lookahead_threads=3 / sliced_threads=0 / nr=0 / decimate=0 / interlaced=0 / bluray_compat=0 / constrained_intra=0 / bframes=10 / b_pyramid=2 / b_adapt=2 / b_bias=0 / direct=3 / weightb=1 / open_gop=0 / weightp=2 / keyint=240 / keyint_min=23 / scenecut=40 / intra_refresh=0 / rc=2pass / mbtree=0 / bitrate=10118 / ratetol=1.0 / qcomp=0.60 / qpmin=0 / qpmax=69 / qpstep=4 / cplxblur=20.0 / qblur=0.5 / ip_ratio=1.40 / pb_ratio=1.30 / aq=3:0.90
Language : English
Default : Yes
Forced : No

Audio #1
ID : 2
Format : AC-3
Format/Info : Audio Coding 3
Mode extension : CM (complete main)
Format settings, Endianness : Big
Codec ID : A_AC3
Duration : 1 h 36 min
Bit rate mode : Constant
Bit rate : 384 kb/s
Channel(s) : 6 channels
Channel positions : Front: L C R, Side: L R, LFE
Sampling rate : 48.0 kHz
Frame rate : 31.250 FPS (1536 spf)
Bit depth : 16 bits
Compression mode : Lossy
Stream size : 266 MiB (4%)
Title : [UA-DVO]
Language : Ukrainian
Default : Yes
Forced : Yes

Audio #2
ID : 3
Format : AC-3
Format/Info : Audio Coding 3
Mode extension : CM (complete main)
Format settings, Endianness : Big
Codec ID : A_AC3
Duration : 1 h 36 min
Bit rate mode : Constant
Bit rate : 448 kb/s
Channel(s) : 6 channels
Channel positions : Front: L C R, Side: L R, LFE
Sampling rate : 48.0 kHz
Frame rate : 31.250 FPS (1536 spf)
Bit depth : 16 bits
Compression mode : Lossy
Stream size : 310 MiB (4%)
Language : English
Default : No
Forced : No

Text
ID : 4
Format : UTF-8
Codec ID : S_TEXT/UTF8
Codec ID/Info : UTF-8 Plain Text
Duration : 1 h 30 min
Bit rate : 51 b/s
Count of elements : 1107
Stream size : 34.5 KiB (0%)
Language : English
Default : No
Forced : No
Українською мовою озвучено Автор-Студією на замовлення Аврора Distribution
Скріншоти



Подяка пану MAKAPOHHIKу за запис звуку та пану hellforces за постер.
Джерело:
Особиста оцінка: 8 - мені сподобалося


 Трекер:    Зареєстрований   

Завантажити / скачати фільм українською



відео для новачків



 Зареєстрований:   2018-01-14 17:44
 Розмір:   7.41 GB 
 Оцінка фільму:   5.7/10 (Голосів: 7)
   
Інші релізи
Ваш часовий пояс: GMT + 2 Години

Нова тема   Відповісти