H2O: Просто додай води (Сезон 3) / H2O: Just Add Water (Season 3) (2009-2010) 1080p 2xUkr/Eng

Нові коментарі

Нова тема   Відповісти
Автор Повідомлення
Anonymous 







2018-01-14 13:19  
H2O: Просто додай води (Сезон 3) / H2O: Just Add Water (Season 3) (2009-2010) 1080p 2xUkr/Eng

H2O: Просто додай води (Сезон 3) / H2O: Just Add Water (Season 3) (2009-2010) 1080p 2xUkr/Eng


Жанр: фентезі, сімейний, драма
Країна: Австралія



Кінокомпанія: TEN
Режисер: Джонатан М. Шифф (Jonathan M. Shiff)
Актори: Каріба Хейн (Cariba Heine), Фібі Тонкін (Phoebe Tonkin), Індіана Еванс (Indiana Evans), Анґус МакЛарен (Angus McLaren), Люк Мітчелл (Luke Mitchell)

Сюжет:
Емма змушена поїхати з міста, оскільки її родина переїжджає. Клео і Ріккі засмучені, але вони думають, що секретів більше не лишилося, їхня таємниця так і залишиться їхнім секретом. Однак дівчатам на острові Мако несподівано починає протистояти нова сила. І що дивно, ця сила виходить з води, яку, як вони думали, русалки успішно контролюють. При цьому хлопець на ім'я Вілл, що захоплюється підводним плаванням і дайвінгом, подорожуючи на батьківській яхті, зривається зі страховки і запливає в печеру острова Мако. Та чи те це місячне озеро, добре відоме нашим русалкам? Або це буде нова печера, що приготувала нашим дівчаткам кілька неприємних сюрпризів?


Тривалість: 1 серія: ~24:30 (цілком серій: 26)
Перелік серій
01. The Awakening
02. Jungle Hunt
03. Keep Your Enemies Close
04. Valentine's Day
05. Big Ideas
06. Secrets and Lies
07. Happy Families
08. Kidnapped
09. The Sorcerer's Apprentice
10. Revealed
11. Just a Girl at Heart
12. Crime and Punishment
13. To Have and to Hold Back
14. Mermaid Magic
15. Power Play
16. The Dark Side
17. A Magnetic Attraction
18. Into the Light
19. Breakaway
20. Queen for a Day
21. The Jewel Thief
22. Mako Masters
23. Beach Party
24. Too Close for Comfort
25. A Date with Destiny
26. Graduation
Якість:
Відео:
кодек:
розмір кадру: 1920 х 1080
бітрейт: 10000 кб/с

Аудіо # 1 [К1]:
мова: українська
переклад: багатоголосий закадровий
кодек: 2.0
бітрейт: 192 кб/с

Джерело озвучення:


Аудіо # 2 [ТЕТ]:
мова: українська
переклад: багатоголосий закадровий
кодек: 2.0
бітрейт: 192 кб/с

Джерело озвучення:


Аудіо # 3:
мова: англійська
переклад: оригінал
кодек: 2.0
бітрейт: 128 кб/с
Info
General
Unique ID : 172610601572941792792434478297052203126 (0x81DB97B6856C982DC64090BF97C9C876)
Complete name : E:\Support\H2O Just Add Water (Season 3) [, 1080p, Ukr, Eng]\H2O Just Add Water. S03E01. The Awakening.
Format :
Format version : Version 4 / Version 2
File size : 1.80 GiB
Duration : 24 min 32 s
Overall bit rate mode : Constant
Overall bit rate : 10.5 Mb/s
Encoded date : UTC 2018-01-13 12:43:59
Writing application : v19.0.0 ('Brave Captain') 64-bit
Writing library : libebml v1.3.5 + v1.4.8

Video
ID : 1
Format : AVC
Format/Info : Advanced Video Codec
Format profile : [email protected]
Format settings, CABAC : Yes
Format settings, ReFrames : 4 frames
Codec ID : V_MPEG4/ISO/AVC
Duration : 24 min 32 s
Bit rate mode : Constant
Bit rate : 10 000 kb/s
Width : 1 920 pixels
Height : 1 080 pixels
Display aspect ratio : 16:9
Frame rate mode : Constant
Frame rate : 25.000 FPS
Standard : PAL
Color space : YUV
Chroma subsampling : 4:2:0
Bit depth : 8 bits
Scan type : Progressive
Bits/(Pixel*Frame) : 0.193
Stream size : 1.71 GiB (95%)
Language : English
Default : Yes
Forced : No
Color range : Limited
Color primaries : BT.709
Transfer characteristics : BT.709
Matrix coefficients : BT.709

Audio #1
ID : 2
Format : AC-3
Format/Info : Audio Coding 3
Format settings, Endianness : Big
Codec ID : A_AC3
Duration : 24 min 32 s
Bit rate mode : Constant
Bit rate : 192 kb/s
Channel(s) : 2 channels
Channel positions : Front: L R
Sampling rate : 48.0 kHz
Frame rate : 31.250 FPS (1536 spf)
Bit depth : 16 bits
Compression mode : Lossy
Stream size : 33.7 MiB (2%)
Title : К1
Language : Ukrainian
Service kind : Complete Main
Default : Yes
Forced : No

Audio #2
ID : 3
Format : AC-3
Format/Info : Audio Coding 3
Format settings, Endianness : Big
Codec ID : A_AC3
Duration : 24 min 32 s
Bit rate mode : Constant
Bit rate : 192 kb/s
Channel(s) : 2 channels
Channel positions : Front: L R
Sampling rate : 48.0 kHz
Frame rate : 31.250 FPS (1536 spf)
Bit depth : 16 bits
Compression mode : Lossy
Stream size : 33.7 MiB (2%)
Title : ТЕТ
Language : Ukrainian
Service kind : Complete Main
Default : No
Forced : No

Audio #3
ID : 4
Format : AC-3
Format/Info : Audio Coding 3
Format settings, Endianness : Big
Codec ID : A_AC3
Duration : 24 min 32 s
Bit rate mode : Constant
Bit rate : 128 kb/s
Channel(s) : 2 channels
Channel positions : Front: L R
Sampling rate : 48.0 kHz
Frame rate : 31.250 FPS (1536 spf)
Bit depth : 16 bits
Compression mode : Lossy
Stream size : 22.5 MiB (1%)
Language : English
Service kind : Complete Main
Default : No
Forced : No
Скріншоти

За українську доріжку з озвученням ТЕТ дякую Anubys та legos25

Джерело: &
Особиста оцінка: 8 - мені сподобалося





Срібний реліз (на рейтинг впливає 50% завантаженого)
 Трекер:    Зареєстрований   

Завантажити / скачати серіал українською



відео для новачків



 Зареєстрований:   2018-01-14 13:19
 Розмір:   46.75 GB 
 Оцінка серіалу:   10/10 (Голосів: 2)
   
Ваш часовий пояс: GMT + 2 Години

Нова тема   Відповісти