Коматозники / Flatliners (2017) 1080p Ukr/Eng | Sub Ukr/Eng

Нові коментарі

Нова тема   Відповісти
Автор Повідомлення
Felodrein 
Частий відвідувач


З нами з: 18.12.17
Востаннє: 19.01.18
Повідомлень: 48

2018-01-14 03:59  
Коматозники / Flatliners (2017) 1080p Ukr/Eng | Sub Ukr/Eng


Альтернативні постери


«Життя почнеться лише після смерті»



Жанр: драма, трилер, фантастика, жахи
Країна: США



Кінокомпанія: Cross Creek Pictures, Furthur Films, Laurence Mark Productions
Режисер: Нільс Арден Оплев
Актори: Ніна Добрев, Еллен Пейдж, Шарлотта МакКінні, Дієго Луна, Кіфер Сазерленд, Джеймс Нортон, Кірсі Клемонс, Бо Мірчофф

Сюжет:
Студенти-медики експериментують з досвідом «близької смерті», який пов'язаний з минулими трагедіями, поки небезпечні наслідки не ставлять під загрозу їх життя.


Тривалість: 01:49:46
Якість: 1080p

Відео:
кодек:
розмір кадру: 1920 x 804
бітрейт: 6579 кб/с

Аудіо # 1:
мова: українська
переклад: професійний дубльований
кодек: 2.0
бітрейт: 192 кб/с

Аудіо # 2:
мова: англійська
переклад: оригінал
кодек: 5.1
бітрейт: 448 кб/с

Субтитри (Forced, Full):
мова: українська
тип: програмні (м'які)
формат: *.srt

Субтитри (Full, SDH):
мова: англійська
тип: програмні (м'які)
формат: *.srt
Info та log
Код:

General
Unique ID                                : 140706905456164497605746928946458707930 (0x69DB2A0CF1A719DF64CC97CBCE14C7DA)
Complete name                            : D:\Flatliners (2017) 1080p [UKR_ENG] [Hurtom].
Format                                   :
Format version                           : Version 4 / Version 2
File size                                : 5.55 GiB
Duration                                 : 1 h 49 min
Overall bit rate                         : 7 240 kb/s
Movie name                               : Flatliners 2017 from ExKinoRay
Encoded date                             : UTC 2018-01-14 00:53:09
Writing application                      : mkvmerge v19.0.0 ('Brave Captain') 64-bit
Writing library                          : libebml v1.3.5 + libmatroska v1.4.8 / Lavf57.71.100
ENCODING_INFO                            : ,WEBM > / H264 > CQ-2P 18 Very Slow

Video
ID                                       : 1
Format                                   : AVC
Format/Info                              : Advanced Video Codec
Format profile                           : [email protected]
Format settings                          : CABAC / 5 Ref Frames
Format settings, CABAC                   : Yes
Format settings, RefFrames               : 5 frames
Codec ID                                 : V_MPEG4/ISO/AVC
Duration                                 : 1 h 49 min
Bit rate                                 : 6 579 kb/s
Width                                    : 1 920 pixels
Height                                   : 804 pixels
Display aspect ratio                     : 2.40:1
Frame rate mode                          : Constant
Frame rate                               : 23.976 (24000/1001) FPS
Color space                              : YUV
Chroma subsampling                       : 4:2:0
Bit depth                                : 8 bits
Scan type                                : Progressive
Bits/(Pixel*Frame)                       : 0.178
Stream size                              : 5.06 GiB (91%)
Writing library                          : core 155 r2893M b00bcaf
Encoding settings                        : cabac=1 / ref=5 / deblock=1:-1:-1 / analyse=0x3:0x113 / me=umh / subme=10 / psy=1 / psy_rd=1.00:0.15 / mixed_ref=1 / me_range=64 / chroma_me=1 / trellis=2 / 8x8dct=1 / cqm=0 / deadzone=21,11 / fast_pskip=1 / chroma_qp_offset=-3 / threads=9 / lookahead_threads=2 / sliced_threads=0 / nr=0 / decimate=1 / interlaced=0 / bluray_compat=0 / constrained_intra=0 / bframes=16 / b_pyramid=2 / b_adapt=2 / b_bias=0 / direct=3 / weightb=1 / open_gop=0 / weightp=2 / keyint=240 / keyint_min=24 / scenecut=40 / intra_refresh=0 / rc=2pass / mbtree=0 / bitrate=6579 / ratetol=1.0 / qcomp=0.60 / qpmin=0 / qpmax=69 / qpstep=4 / cplxblur=20.0 / qblur=0.5 / ip_ratio=1.40 / pb_ratio=1.30 / aq=1:1.00
Language                                 : English
Default                                  : Yes
Forced                                   : No

Audio #1
ID                                       : 2
Format                                   : AC-3
Format/Info                              : Audio Coding 3
Codec ID                                 : A_AC3
Duration                                 : 1 h 49 min
Bit rate mode                            : Constant
Bit rate                                 : 192 kb/s
Channel(s)                               : 2 channels
Channel positions                        : Front: L R
Sampling rate                            : 48.0 kHz
Frame rate                               : 31.250 FPS (1536 SPF)
Bit depth                                : 16 bits
Compression mode                         : Lossy
Stream size                              : 151 MiB (3%)
Language                                 : Ukrainian
Service kind                             : Complete Main
Default                                  : Yes
Forced                                   : No

Audio #2
ID                                       : 3
Format                                   : AC-3
Format/Info                              : Audio Coding 3
Codec ID                                 : A_AC3
Duration                                 : 1 h 49 min
Bit rate mode                            : Constant
Bit rate                                 : 448 kb/s
Channel(s)                               : 6 channels
Channel positions                        : Front: L C R, Side: L R, LFE
Sampling rate                            : 48.0 kHz
Frame rate                               : 31.250 FPS (1536 SPF)
Bit depth                                : 16 bits
Compression mode                         : Lossy
Stream size                              : 352 MiB (6%)
Language                                 : English
Service kind                             : Complete Main
Default                                  : No
Forced                                   : No

Text #1
ID                                       : 4
Format                                   : UTF-8
Codec ID                                 : S_TEXT/UTF8
Codec ID/Info                            : UTF-8 Plain Text
Duration                                 : 1 h 47 min
Bit rate                                 : 0 b/s
Count of elements                        : 10
Stream size                              : 475 Bytes (0%)
Language                                 : Ukrainian
Default                                  : Yes
Forced                                   : No

Text #2
ID                                       : 5
Format                                   : UTF-8
Codec ID                                 : S_TEXT/UTF8
Codec ID/Info                            : UTF-8 Plain Text
Duration                                 : 1 h 48 min
Bit rate                                 : 73 b/s
Count of elements                        : 1263
Stream size                              : 57.8 KiB (0%)
Language                                 : Ukrainian
Default                                  : No
Forced                                   : No

Text #3
ID                                       : 6
Format                                   : UTF-8
Codec ID                                 : S_TEXT/UTF8
Codec ID/Info                            : UTF-8 Plain Text
Duration                                 : 1 h 43 min
Bit rate                                 : 47 b/s
Count of elements                        : 1241
Stream size                              : 36.1 KiB (0%)
Language                                 : English
Default                                  : No
Forced                                   : No

Text #4
ID                                       : 7
Format                                   : UTF-8
Codec ID                                 : S_TEXT/UTF8
Codec ID/Info                            : UTF-8 Plain Text
Duration                                 : 1 h 46 min
Bit rate                                 : 59 b/s
Count of elements                        : 1693
Stream size                              : 46.5 KiB (0%)
Language                                 : English
Default                                  : No
Forced                                   : No

Menu
00:00:00.000                             : :00:00:00.000
00:05:48.557                             : :00:05:48.557
00:11:21.097                             : :00:11:21.097
00:18:01.205                             : :00:18:01.205
00:26:41.600                             : :00:26:41.600
00:35:10.734                             : :00:35:10.734
00:42:31.382                             : :00:42:31.382
00:48:10.971                             : :00:48:10.971
00:55:32.621                             : :00:55:32.621
01:03:49.993                             : :01:03:49.993
01:09:43.261                             : :01:09:43.262
01:16:20.868                             : :01:16:20.868
01:24:18.011                             : :01:24:18.011
01:30:00.186                             : :01:30:00.186
01:36:06.094                             : :01:36:06.094
01:41:54.692                             : :01:41:54.692

info: frame I:1194  Avg QP:16.55  size:160973
info: frame P:38002 Avg QP:18.41  size: 65330
info: frame B:118724 Avg QP:20.77  size: 23220

Скріншоти

Подяка пану AngryBirdsUA за доріжку.

Підтримати купівлю інших фільмів можна тут.


Джерело:
Особиста оцінка: 10 - без зайвих вагань рекомендую всім!


 Трекер:    Зареєстрований   

Завантажити / скачати фільм українською



відео для новачків



 Зареєстрований:   2018-01-14 03:59
 Розмір:   5.55 GB 
 Оцінка фільму:   8.2/10 (Голосів: 24)
   
Інші релізи
igor911 
Відео Гуртом
Відео Гуртом


З нами з: 18.01.08
Востаннє: 20.04.18
Повідомлень: 9809

2018-01-14 04:16  
Felodrein написано:
Розмір:   5.55 GB

чому не показуєш лог?
може тому, що при crf=17 виходить Bit rate : 13.5 Mb/s ?

Цей реліз незбалансований виходить - 720ка з crf=17 і Бітрейт 5 939 Кбіт/сек = 5,05 Гб , а ремукс - 21 Гб.

Раджу замінити відеоряд на якісніший.

Felodrein 
Частий відвідувач


З нами з: 18.12.17
Востаннє: 19.01.18
Повідомлень: 48

2018-01-14 04:39  
igor911
CR 18 - 2pass

Якісній. Лог є

Можете загрузити і самі все побачите.
Всього в достатку.

Додано через 18 хвилин 39 секунд:

https://fex.net/get/935310830597/209689387 Семпл

igor911 
Відео Гуртом
Відео Гуртом


З нами з: 18.01.08
Востаннє: 20.04.18
Повідомлень: 9809

2018-01-14 04:39  
Felodrein написано:
CR 18 - 2pass

???

Felodrein написано:
Можете загрузити і самі все побачите

навіть не збираюсь, лише вказав на незбалансованість цього реліза.

Felodrein 
Частий відвідувач


З нами з: 18.12.17
Востаннє: 19.01.18
Повідомлень: 48

2018-01-14 04:42  
igor911
ой, CRF 18 - в 2 проходи.

igor911 
Відео Гуртом
Відео Гуртом


З нами з: 18.01.08
Востаннє: 20.04.18
Повідомлень: 9809

2018-01-14 04:45  
Felodrein написано:
CRF 18 - в 2 проходи

та сама дурниця, лише українськими літерами, АБО crf=18 АБО 2pass, але аж ніяк не
"=" і не "-"

Felodrein 
Частий відвідувач


З нами з: 18.12.17
Востаннє: 19.01.18
Повідомлень: 48

2018-01-14 04:53  
igor911



CQ-2P 18

Ой, квантизер.

igor911 
Відео Гуртом
Відео Гуртом


З нами з: 18.01.08
Востаннє: 20.04.18
Повідомлень: 9809

2018-01-14 11:22  
Constant Quantizer в жодному разі не те саме, що Constant Rate Factor (CRF)
"Пояснення (вибачаюсь, цитата російською):"
Цитата:
В режиме Constant Quantizer (постоянного квантизера) каждый кадр кодируется с одинаковым математическим качеством (или квантизером), не обращая внимания на то, сколько битрейта придётся потратить. Чем ниже значение - тем выше качество.

Рекомендации: Используйте CRF вместо QP. Так как QP не дает возможности заранее определить размер/битрейт итогового видео, а также Вы получите намного больший размер файла, нежели с CRF.
Примечание: Значение QP отвечает только за качество Р-кадров. Качество I-кадров и B-кадров высчитывается исходя из значений --ipratio и --pbratio соответственно. QP немного быстрее чем CRF.
Досвідчені ріпери чомусь обрали для 1080p ріпу мінімум вдвічі більший бітрейт:
Flatliners 2017 1080p BluRay DD5.1 -VietHD :
RELEASE SIZE..: 11.6 GiB
BITRATE.......: 14.5 Mbps
лог
iNFO
[info]: frame I:1379 Avg QP:13.22 size:222468
[info]: frame P:37728 Avg QP:14.71 size:119609
[info]: frame B:118813 Avg QP:16.37 size: 59828
[info]: consecutive B-frames: 3.3% 6.2% 6.7% 27.5% 14.7% 23.3% 8.1% 9.3% 0.9% 0.1%

encoded 157920 frames, 6.567 fps, 14487.37 kb/s, 11375 MB
[info]: ended at Sat Dec 23 07:47:25 2017
[info]: encoding duration 6:40:49
ExKinoRay 1080р ріп - 13.5 Mbit/s (crf=17)
МІ
Цитата:
Format settings : CABAC / 5 Ref Frames
Format settings, CABAC : Yes
Format settings, ReFrames : 5 frames
Codec ID : V_MPEG4/ISO/AVC
Duration : 1 h 49 min
Bit rate : 13.5 Mb/s
Width : 1 920 pixels
Height : 804 pixels
Display aspect ratio : 2.40:1
Frame rate mode : Constant
Frame rate : 23.976 (24000/1001) FPS
Color space : YUV
Chroma subsampling : 4:2:0
Bit depth : 8 bits
Scan type : Progressive
Bits/(Pixel*Frame) : 0.366
Stream size : 10.4 GiB (88%)
Writing library : core 152 r2851+58 429492e t_mod_Custom [[email protected] X86_64]
Encoding settings : cabac=1 / ref=5 / deblock=1:-3:-3 / analyse=0x3:0x133 / me=umh / subme=10 / psy=1 / fade_compensate=0.00 / psy_rd=1.05:0.00 / mixed_ref=1 / me_range=48 / chroma_me=1 / trellis=2 / 8x8dct=1 / cqm=0 / deadzone=21,11 / fast_pskip=0 / chroma_qp_offset=-2 / threads=24 / lookahead_threads=6 / sliced_threads=0 / nr=0 / decimate=0 / interlaced=0 / bluray_compat=0 / constrained_intra=0 / fgo=0 / bframes=11 / b_pyramid=2 / b_adapt=2 / b_bias=0 / direct=3 / weightb=1 / open_gop=0 / weightp=2 / keyint=250 / keyint_min=23 / scenecut=40 / intra_refresh=0 / rc_lookahead=60 / rc=crf / mbtree=0 / crf=17.0000 / qcomp=0.60 / qpmin=0:0:0 / qpmax=69:69:69 / qpstep=4 / vbv_maxrate=62500 / vbv_bufsize=78125 / crf_max=0.0 / nal_hrd=none / filler=0 / ip_ratio=1.30 / pb_ratio=1.20 / aq=3:0.76 / aq-sensitivity=10.00 / aq-factor=1.00:1.00:1.00 / aq2=0 / aq3=0 / zones=1576,1917,crf=14.5/2229,2302,crf=14.5/6447,7142,crf=14.5/21432,22200,crf=14.5/32238,32656,crf=14.5

ще й деякі сцени кодувались з crf=14.5 для збереження якості

LEQI_tt 
Новенький


З нами з: 20.04.17
Востаннє: 19.04.18
Повідомлень: 2

2018-01-19 21:59  
Гарне кіно!
zz_PamaxA_zz 
Свій


З нами з: 07.05.10
Востаннє: 05.04.18
Повідомлень: 77

2018-02-07 12:16  
таку файну ідею запороли, а міг би бути доволі топовим фільмом. у першій половині фільму очікуєш чогось нового і воно мало б бути, та друга половина тупо розчаровує, а кінцівка - УГ!
хрінь, а не фільм.

Ваш часовий пояс: GMT + 2 Години

Нова тема   Відповісти