Бебі Бос / The Boss Baby (2017)

Нові коментарі

Нова тема   Відповісти
Автор Повідомлення
Anonymous 







2018-01-14 03:04  
Бебі Бос / The Boss Baby (2017)

Бебі Бос / The Boss Baby (2017)
Альтернативний постер:


Жанр: анімація, комедія, сімейний
Країна: США



Кінокомпанія: DreamWorks Animation
Режисер: Том МакГрат / Tom McGrath
Актори: Стів Бушемі / Steve Buscemi, Алек Болдвін / Alec Baldwin, Ліза Кудроу / Lisa Kudrow, Тобі Магвайр / Tobey Maguire, Джиммі Кіммел / Jimmy Kimmel та інші

Сюжет:
Багатьом відомо, як це – коли в родині з'являється молодший брат або сестра. Всю свою увагу і любов батьки приділяють крихітному карапузові, що не замовкає ні на мить. Коли маленький брат з'явився у семирічного Тіма, дива не сталося. Як зачаровані, тато і мама виконували всі забаганки крикливого немовляти. Намагаючись повернути увагу батьків, Тім дізнається, що існує таємна змова. Спеціальні агенти роблять все, щоб дестабілізувати баланс любові в світі. Тепер наш герой просто зобов'язаний зробити все від нього залежне, щоб врятувати дорослих від страшної загрози і повернути в родину баланс миру та любові.
Офіційні українські трейлери:






Рейтинг MPAA: PG - рекомендується присутність батьків
Вікова категорія: 6+
Тривалість: 01:37:30
Якість: [джерело - Blu-Ray Remux]
Відео:
кодек:
розмір кадру: 720 х 304
бітрейт: 1676 кб/с

Аудіо:
мова: українська
переклад: професійний дубльований | студія Postmodern
кодек: 5.1
бітрейт: 448 кб/с
Інформація про дубляж
Переклад: Сергій Ковальчук
Режисер дубляжу: Катерина Брайковська
Звукорежисер: Антон Семикопенко
Менеджер проекту: Ірина Туловська
Ролі дублювали: Назар Задніпровський (Бебі Бос / Алек Болдвін), Олег Лепенець (Френсіс Френсіс / Стів Бушемі), Юрій Кудрявець (Тато - Тед Темплтон / Джиммі Кіммел), Наталя Романько-Кисельова (Мама - Джаніс Темплтон / Ліза Кудроу), Павло Скороходько (дорослий Тім / диктор / Тобі Магвайр, Володимир Машук (Тім), Матвій Ніколаєв (Чудодій), Дмитро Гаврилов (Елвіси), Сергій Солопай, Галина Дубок, Єгор Скороходько, Олександр Погребняк (Джимбо).
А також: Дмитро Сова, Дмитро Рассказов, Михайло Войчук, Вероніка Лук'яненко, Катерина Башкіна-Зленко, Аревік Арзуманова, Петро Сова, Олена Борозенець, Михайло Войчук, Юрій Сосков, В'ячеслав Дудко
Дитячі епізоди та гуртівка - Дмитро Зленко, Олена Зименко, Ксенія Лук'яненко, Віктор Григор'єв, Дем'ян Шиян.

Студія міксу - Делюкс медіа (Deluxe media), студія дубляжу - Postmodern
Субтитри:
мова: українська (форсовані)
тип: програмні (м'які)
формат: *.srt
Info
Код:
General
Complete name               : The Boss Baby (2017) [Hurtom].avi
Format                      : AVI
Format/Info                 : Audio Video Interleave
File size                   : 1.45 GiB
Duration                    : 1 h 37 min
Overall bit rate            : 2 133 kb/s
Movie name                  : Бебі Бос / The Boss Baby (2017) [Ukr] [Hurtom]
Genre                       : анімація, комедія, сімейний
Writing application         : VirtualDubModUkr 1.5.10.2 (build 2542/release)
Writing library             : VirtualDubMod build 2542/release
Comment                     : https://toloka.to/t86525

Video
ID                          : 0
Format                      : MPEG-4 Visual
Format profile              : Advanced [email protected]
Format settings             : BVOP1 / Custom Matrix
Format settings, BVOP       : 1
Format settings, QPel       : No
Format settings, GMC        : No warppoints
Format settings, Matrix     : Custom
Codec ID                    :
Codec ID/Hint               :
Duration                    : 1 h 37 min
Bit rate                    : 1 676 kb/s
Width                       : 720 pixels
Height                      : 304 pixels
Display aspect ratio        : 2.35:1
Frame rate                  : 23.976 (24000/1001) FPS
Color space                 : YUV
Chroma subsampling          : 4:2:0
Bit depth                   : 8 bits
Scan type                   : Progressive
Compression mode            : Lossy
Bits/(Pixel*Frame)          : 0.319
Stream size                 : 1.14 GiB (79%)
Writing library             : 65

Audio
ID                          : 1
Format                      : AC-3
Format/Info                 : Audio Coding 3
Codec ID                    : 2000
Duration                    : 1 h 37 min
Bit rate mode               : Constant
Bit rate                    : 448 kb/s
Channel(s)                  : 6 channels
Channel positions           : Front: L C R, Side: L R, LFE
Sampling rate               : 48.0 kHz
Frame rate                  : 31.250 FPS (1536 SPF)
Bit depth                   : 16 bits
Compression mode            : Lossy
Stream size                 : 312 MiB (21%)
Alignment                   : Split accross interleaves
Interleave, duration        : 42  ms (1.00 video frame)
Interleave, preload duratio : 500  ms
Title                       : UKR DUB [Postmodern, Blu-ray]
Service kind                : Complete Main


Джерело: &


 Трекер:    Зареєстрований   

Завантажити / скачати мультфільм українською



відео для новачків



 Зареєстрований:   2018-01-14 03:14
 Розмір:   1.45 GB 
 Оцінка мультфільму:   9.6/10 (Голосів: 43)
   
Інші релізи
templier71 
Новенький


З нами з: 22.01.10
Востаннє: 14.09.18
Повідомлень: 14

2018-01-20 13:28  
Якийсь мультиплікаційний Уотергейт, а не мультфільм. Ні дітям, ні дорослим.
qarty1 
Свій


З нами з: 01.11.09
Востаннє: 21.09.18
Повідомлень: 68

2018-05-16 22:15  
жартів майже немає слабо 6/10
Ваш часовий пояс: GMT + 2 Години

Нова тема   Відповісти